<?xml version="1.0" standalone="no"?>
<!DOCTYPE svg PUBLIC "-//W3C//DTD SVG 1.1//EN" "http://www.w3.org/Graphics/SVG/1.1/DTD/svg11.dtd">
<svg xmlns="http://www.w3.org/2000/svg">
<defs >
<font id="DMMono" horiz-adv-x="600" ><font-face
    font-family="DM Mono Medium"
    units-per-em="1000"
    panose-1="2 11 6 9 4 2 1 4 1 3"
    ascent="992"
    descent="-310"
    alphabetic="0" />
<glyph unicode=" " glyph-name="space" />
<glyph unicode="!" glyph-name="exclam" d="M250 255L234 700H366L349 255H250ZM301 -6Q264 -6 238 18T212 78Q212 113 238 137T301 161Q339 161 364 137T390 78Q390 43 365 19T301 -6Z" />
<glyph unicode="&quot;" glyph-name="quotedbl" d="M383 379V700H501V379H383ZM355 379V700H473V379H355Z" />
<glyph unicode="#" glyph-name="numbersign" d="M77 0L106 186H12V278H120L142 422H51V514H156L185 700H284L255 514H395L424 700H523L494 514H588V422H480L458 278H549V186H444L415 0H316L345 186H205L176 0H77ZM219 278H359L381 422H241L219 278Z" />
<glyph unicode="$" glyph-name="dollar" d="M264 -87V-10Q163 1 102 61T39 217H150Q152 169 181 134T264 87V322Q258 324 250 326Q152 354 107 403T62 525Q62 601 115 651T264 710V791H334V711Q427 702 482 650T540 513H428Q427 545 403 574T334 613V403Q343 401
353 398Q414 382 459 357T529 291T554 192Q554 138 528 94T452 22T334 -11V-87H264ZM172 529Q172 495 194 471T264 427V615Q222 608 197 586T172 529ZM442 185Q442 227 417 253T334 300V85Q387 91 414 118T442 185Z" />
<glyph unicode="%" glyph-name="percent" d="M166 402Q101 402 59 444T17 557Q17 628 59 670T166 712Q231 712 273 670T315 557Q315 486 273 444T166 402ZM166 472Q195 472 217 494T239 557Q239 598 217 620T166 642Q137 642 115 620T93 557Q93 517 115 495T166
472ZM71 59L16 113L529 641L584 587L71 59ZM434 -12Q369 -12 327 30T285 143Q285 214 327 256T434 298Q499 298 541 256T583 143Q583 72 541 30T434 -12ZM434 58Q463 58 485 80T507 143Q507 184 485 206T434 228Q405 228 383 206T361 143Q361 103 383 81T434 58Z"
/>
<glyph unicode="&amp;" glyph-name="ampersand" d="M246 -11Q147 -11 87 46T26 204Q26 266 58 317T150 404Q101 476 101 541Q101 589 122 627T186 689T287 712Q375 712 422 665T470 546H368Q367 581 344 601T286 621Q248 621 226 599T204 542Q204 512 220 482T267
413L408 234L467 363H577L483 163Q479 155 476 148L592 0H470L420 63Q388 28 346 9T246 -11ZM132 207Q132 154 164 119T248 84Q283 84 309 99T357 142L205 331Q132 285 132 207Z" />
<glyph unicode="&apos;" glyph-name="quotesingle" d="M241 379V700H359V379H241Z" />
<glyph unicode="(" glyph-name="parenleft" d="M335 -185Q282 -125 239 -54T170 108T144 313Q144 429 169 518T238 679T335 811H443V798Q385 731 342 660T275 504T251 313Q251 208 275 123T342 -33T443 -172V-185H335Z" />
<glyph unicode=")" glyph-name="parenright" d="M157 -185V-172Q215 -105 258 -34T325 123T349 313Q349 419 325 503T258 659T157 798V811H265Q318 751 361 680T430 519T456 313Q456 198 431 108T362 -53T265 -185H157Z" />
<glyph unicode="*" glyph-name="asterisk" d="M247 101L273 304L107 187L61 271L245 350L61 429L107 513L273 396L247 599H354L328 396L494 513L540 429L355 350L540 271L494 187L328 304L354 101H247Z" />
<glyph unicode="+" glyph-name="plus" d="M252 118V302H68V398H252V582H348V398H532V302H348V118H252Z" />
<glyph unicode="," glyph-name="comma" d="M144 -125L240 155H379L248 -125H144Z" />
<glyph unicode="-" glyph-name="hyphen" d="M128 305V395H472V305H128Z" />
<glyph unicode="." glyph-name="period" d="M300 -6Q263 -6 237 18T211 78Q211 113 237 137T300 161Q338 161 363 137T389 78Q389 43 364 19T300 -6Z" />
<glyph unicode="/" glyph-name="slash" d="M73 -90L419 760H527L180 -90H73Z" />
<glyph unicode="0" glyph-name="zero" d="M300 -12Q219 -12 159 32T65 157T32 350Q32 462 65 543T158 668T300 712Q382 712 442 668T535 543T568 350Q568 239 535 158T442 32T300 -12ZM140 350Q140 294 150 248T178 168L353 601Q328 613 300 613Q230 613 185 543T140
350ZM300 86Q347 86 383 118T439 209T460 350Q460 406 450 452T422 531L247 98Q272 86 300 86Z" />
<glyph unicode="1" glyph-name="one" d="M66 0V95H239V575L74 545V631L280 700H345V95H531V0H66Z" />
<glyph unicode="2" glyph-name="two" d="M70 0V84Q173 166 250 235T372 368T416 498Q416 553 385 584T301 616Q240 616 207 578T174 486H71Q72 560 102 610T183 686T301 712Q408 712 466 655T524 501Q524 440 498 384T428 276T333 179T227 91H543V0H70Z" />
<glyph unicode="3" glyph-name="three" d="M305 -12Q236 -12 180 14T91 90T55 213H161Q164 158 201 122T305 86Q370 86 407 118T444 206Q444 268 399 297T289 326H227V420H280Q339 420 377 444T415 519Q415 563 386 588T304 614Q250 614 218 585T182 511H77Q80
571 109 616T188 686T304 712Q376 712 424 688T496 622T520 530Q520 478 490 441T416 386V380Q474 364 511 321T549 204Q549 145 521 96T438 17T305 -12Z" />
<glyph unicode="4" glyph-name="four" d="M377 0V151H45V234L358 700H483V247H574V151H483V0H377ZM163 247H383V581L163 247Z" />
<glyph unicode="5" glyph-name="five" d="M299 -12Q226 -12 172 15T88 89T52 195H160Q170 146 206 116T300 86Q367 86 406 128T445 238Q445 309 405 348T303 387Q253 387 218 364T163 306H61L121 700H502V602H203L169 423H176Q197 447 232 463T317 479Q389 479
440 448T520 363T548 239Q548 169 518 112T431 22T299 -12Z" />
<glyph unicode="6" glyph-name="six" d="M314 -12Q240 -12 189 15T107 90T61 197T46 325Q46 441 78 528T172 663T319 712Q390 712 438 687T514 617T548 515H449Q439 562 404 589T318 616Q251 616 202 553T147 354H153Q174 392 219 421T328 450Q389 450 439 422T518
342T548 224Q548 161 520 107T439 21T314 -12ZM307 84Q368 84 405 122T443 219Q443 278 406 316T307 355Q246 355 208 317T169 220Q169 162 207 123T307 84Z" />
<glyph unicode="7" glyph-name="seven" d="M160 0L425 604H59V700H534V618L271 0H160Z" />
<glyph unicode="8" glyph-name="eight" d="M300 -12Q228 -12 174 15T88 89T57 197Q57 262 91 306T169 368V374Q128 395 102 433T76 525Q76 576 103 618T180 686T300 712Q369 712 419 687T496 619T524 525Q524 471 498 433T431 374V368Q475 351 509 307T543 197Q543
136 513 89T427 15T300 -12ZM300 411Q356 411 388 440T421 515Q421 561 389 590T300 619Q244 619 212 590T179 515Q179 469 211 440T300 411ZM300 84Q362 84 400 115T438 204Q438 261 400 292T300 324Q238 324 200 293T162 204Q162 147 200 116T300 84Z" />
<glyph unicode="9" glyph-name="nine" d="M287 -12Q221 -12 171 14T91 84T55 185H157Q167 138 201 111T287 84Q360 84 405 147T457 346H450Q425 304 386 277T275 250Q215 250 165 278T85 358T55 476Q55 540 84 593T165 679T290 712Q382 712 441 671T528 554T557
375Q557 259 526 172T434 37T287 -12ZM297 345Q359 345 396 383T434 480Q434 539 397 577T297 616Q235 616 198 578T160 481Q160 422 197 384T297 345Z" />
<glyph unicode=":" glyph-name="colon" d="M300 -6Q263 -6 237 18T211 78Q211 113 237 137T300 161Q338 161 363 137T389 78Q389 43 364 19T300 -6ZM300 382Q263 382 237 406T211 466Q211 501 237 525T300 549Q338 549 363 525T389 466Q389 431 364 407T300 382Z" />
<glyph unicode=";" glyph-name="semicolon" d="M300 382Q263 382 237 406T211 466Q211 501 237 525T300 549Q338 549 363 525T389 466Q389 431 364 407T300 382ZM144 -125L240 155H379L248 -125H144Z" />
<glyph unicode="&lt;" glyph-name="less" d="M360 77L94 351L360 622H502L238 354V346L502 77H360Z" />
<glyph unicode="=" glyph-name="equal" d="M68 428V523H532V428H68ZM68 177V272H532V177H68Z" />
<glyph unicode="&gt;" glyph-name="greater" d="M98 77L362 346V354L98 622H240L506 351L240 77H98Z" />
<glyph unicode="?" glyph-name="question" d="M210 220L204 374H242Q326 374 369 405T413 504Q413 555 381 586T291 617Q237 617 204 588T166 508H66Q68 568 95 614T172 686T291 712Q398 712 457 657T516 506Q516 439 486 395T408 327T304 298L301 220H210ZM253
-6Q216 -6 190 18T164 78Q164 113 190 137T253 161Q291 161 316 137T342 78Q342 43 317 19T253 -6Z" />
<glyph unicode="@" glyph-name="at" d="M373 -94Q261 -94 187 -44T75 97T38 303Q38 407 62 482T129 605T224 677T333 700Q438 700 499 648T560 499V107H484L476 155H472Q457 130 432 114T368 98Q294 98 245 152T196 304Q196 402 244 455T369 508Q407 508 432 496T472
463V499Q472 555 434 587T333 619Q282 619 236 589T160 489T130 303Q130 218 156 146T237 31T373 -13H515V-94H373ZM378 173Q419 173 445 204T472 303Q472 371 446 402T378 433Q338 433 311 402T284 303Q284 236 311 205T378 173Z" />
<glyph unicode="A" glyph-name="A" d="M28 0L237 700H363L572 0H457L410 168H190L143 0H28ZM297 550L214 253H386L303 550H297Z" />
<glyph unicode="B" glyph-name="B" d="M56 0V700H306Q415 700 471 650T527 521Q527 460 495 422T421 367V360Q471 342 507 302T543 195Q543 141 517 97T439 26T314 0H56ZM162 408H293Q354 408 386 432T418 507Q418 606 291 606H162V408ZM162 98H300Q365 98 400
126T435 208Q435 261 398 289T298 318H162V98Z" />
<glyph unicode="C" glyph-name="C" d="M302 -12Q214 -12 153 33T59 159T26 349Q26 458 58 539T153 666T302 712Q415 712 482 651T560 484H443Q434 539 399 575T301 612Q222 612 178 542T134 349Q134 227 178 158T301 88Q365 88 399 121T443 210H560Q544 107 479
48T302 -12Z" />
<glyph unicode="D" glyph-name="D" d="M57 0V700H225Q394 700 476 607T558 350Q558 187 476 94T225 0H57ZM163 98H221Q343 98 397 166T451 350Q451 465 397 533T221 602H163V98Z" />
<glyph unicode="E" glyph-name="E" d="M80 0V700H527V605H186V401H497V307H186V95H527V0H80Z" />
<glyph unicode="F" glyph-name="F" d="M84 0V700H533V601H190V387H478V294H190V0H84Z" />
<glyph unicode="G" glyph-name="G" d="M291 -12Q213 -12 154 32T62 158T29 350Q29 459 62 540T156 666T304 712Q408 712 471 655T549 494H434Q424 548 391 580T304 612Q223 612 180 542T137 350Q137 223 182 156T301 88Q350 88 382 117T431 191T452 288H305V376H559V0H461L454
94H448Q428 48 392 18T291 -12Z" />
<glyph unicode="H" glyph-name="H" d="M41 0V700H147V410H453V700H559V0H453V313H147V0H41Z" />
<glyph unicode="I" glyph-name="I" d="M95 0V94H247V606H97V700H503V606H353V94H505V0H95Z" />
<glyph unicode="J" glyph-name="J" d="M309 -12Q201 -12 143 48T85 215H192Q193 160 220 122T308 84Q367 84 392 121T418 213V700H524V213Q524 105 467 47T309 -12Z" />
<glyph unicode="K" glyph-name="K" d="M76 0V700H182V380L430 700H561L287 353V347L567 0H433L182 314V0H76Z" />
<glyph unicode="L" glyph-name="L" d="M81 0V700H187V95H532V0H81Z" />
<glyph unicode="M" glyph-name="M" d="M43 0V700H155L300 384L445 700H557V0H456V498L342 248H258L144 497V0H43Z" />
<glyph unicode="N" glyph-name="N" d="M51 0V700H155L448 187V700H549V0H445L152 513V0H51Z" />
<glyph unicode="O" glyph-name="O" d="M300 -12Q215 -12 153 32T58 157T25 350Q25 462 58 543T153 668T300 712Q386 712 447 668T542 543T575 350Q575 238 542 157T448 32T300 -12ZM300 88Q375 88 421 155T467 350Q467 477 421 544T300 612Q224 612 179 545T133
350Q133 223 178 156T300 88Z" />
<glyph unicode="P" glyph-name="P" d="M71 0V700H308Q388 700 440 673T517 597T542 487Q542 425 517 377T440 302T308 274H177V0H71ZM177 369H303Q371 369 402 401T434 487Q434 540 403 572T303 605H177V369Z" />
<glyph unicode="Q" glyph-name="Q" d="M300 -12Q215 -12 153 32T58 157T25 350Q25 462 58 543T153 668T300 712Q386 712 447 668T542 543T575 350Q575 226 535 140T421 16L571 -153H436L310 -12Q305 -12 300 -12ZM300 88Q375 88 421 155T467 350Q467 477 421 544T300
612Q224 612 179 545T133 350Q133 223 178 156T300 88Z" />
<glyph unicode="R" glyph-name="R" d="M75 0V700H304Q386 700 439 672T519 597T546 489Q546 421 512 369T406 292L553 0H430L296 277H181V0H75ZM181 373H298Q370 373 403 405T437 489Q437 542 404 573T297 605H181V373Z" />
<glyph unicode="S" glyph-name="S" d="M307 -12Q233 -12 178 15T91 92T58 211H170Q171 158 206 121T306 83Q365 83 398 110T431 182Q431 219 412 243T351 287T245 328Q158 356 117 405T76 527Q76 610 136 661T301 712Q403 712 465 660T529 514H416Q416 539 402
562T362 601T298 617Q251 618 219 595T187 531Q187 482 226 455T353 398Q408 380 450 355T517 290T542 189Q542 133 514 88T434 15T307 -12Z" />
<glyph unicode="T" glyph-name="T" d="M247 0V605H59V700H541V605H353V0H247Z" />
<glyph unicode="U" glyph-name="U" d="M298 -12Q227 -12 172 17T84 105T52 256V700H158V250Q158 170 196 127T300 83Q366 83 404 126T442 250V700H548V256Q548 165 515 106T426 17T298 -12Z" />
<glyph unicode="V" glyph-name="V" d="M237 0L21 700H135L300 140L465 700H579L363 0H237Z" />
<glyph unicode="W" glyph-name="W" d="M97 0L1 700H104L162 191L248 700H352L438 191L496 700H599L503 0H380L300 495L220 0H97Z" />
<glyph unicode="X" glyph-name="X" d="M31 0L240 350L29 700H152L303 448L450 700H569L360 353L571 0H450L297 255L152 0H31Z" />
<glyph unicode="Y" glyph-name="Y" d="M247 0V266L16 700H137L300 378L463 700H584L353 266V0H247Z" />
<glyph unicode="Z" glyph-name="Z" d="M62 0V87L412 605H67V700H535V613L185 95H539V0H62Z" />
<glyph unicode="[" glyph-name="bracketleft" d="M276 -185Q221 -185 192 -156T162 -71V697Q162 752 191 781T276 811H434V718H294Q262 718 262 686V-58Q262 -90 294 -90H434V-185H276Z" />
<glyph unicode="\" glyph-name="backslash" d="M420 -90L73 760H181L527 -90H420Z" />
<glyph unicode="]" glyph-name="bracketright" d="M166 -185V-90H306Q338 -90 338 -58V686Q338 718 306 718H166V811H324Q379 811 408 782T438 697V-71Q438 -126 409 -155T324 -185H166Z" />
<glyph unicode="^" glyph-name="asciicircum" d="M39 362L249 700H351L561 362H452L303 604H297L148 362H39Z" />
<glyph unicode="_" glyph-name="underscore" d="M68 -95V0H532V-95H68Z" />
<glyph unicode="`" glyph-name="grave" d="M409 534L191 638V737L409 624V534Z" />
<glyph unicode="a" glyph-name="a" d="M255 -12Q196 -12 156 8T96 63T76 139Q76 212 129 253T281 294H409V305Q409 417 305 417Q262 417 233 399T193 339H87Q95 417 154 462T305 508Q415 508 465 454T515 305V0H425L416 73H409Q387 38 354 13T255 -12ZM275 77Q340
77 372 116T408 217H292Q235 217 212 199T188 147Q188 114 211 96T275 77Z" />
<glyph unicode="b" glyph-name="b" d="M327 -12Q272 -12 235 10T177 73H171L162 0H71V720H177V432Q195 462 234 485T327 508Q389 508 438 479T515 391T544 248Q544 163 516 105T438 18T327 -12ZM305 89Q362 89 399 128T437 247Q437 327 400 367T305 407Q248 407
211 368T173 248Q173 169 210 129T305 89Z" />
<glyph unicode="c" glyph-name="c" d="M307 -12Q238 -12 184 20T98 110T67 248Q67 327 98 385T184 475T307 508Q402 508 460 461T535 330H424Q414 366 384 387T306 408Q272 408 242 390T193 337T174 248Q174 196 192 160T241 106T306 87Q354 87 383 108T424 166H535Q515
84 457 36T307 -12Z" />
<glyph unicode="d" glyph-name="d" d="M273 -12Q211 -12 162 17T85 105T56 248Q56 333 85 391T163 478T274 508Q331 508 368 487T423 432V720H529V0H438L429 73H423Q403 34 367 11T273 -12ZM295 89Q352 89 389 129T427 248Q427 328 390 367T295 407Q238 407 201
367T163 247Q163 168 200 129T295 89Z" />
<glyph unicode="e" glyph-name="e" d="M306 -12Q234 -12 179 20T93 111T62 246Q62 324 92 383T178 475T307 508Q379 508 431 476T511 389T540 270Q540 260 540 249T539 223H166Q171 154 211 119T305 83Q352 83 379 102T420 156H527Q509 85 452 37T306 -12ZM306
416Q257 416 219 387T170 304H434Q430 354 395 385T306 416Z" />
<glyph unicode="f" glyph-name="f" d="M69 -220V-127H150Q185 -127 200 -113T216 -64V406H90V496H216V565Q216 648 257 684T374 720H495V627H387Q352 627 337 613T322 564V496H495V406H322V-65Q322 -148 281 -184T163 -220H69Z" />
<glyph unicode="g" glyph-name="g" d="M289 143Q243 143 204 158L179 128Q167 113 172 100T199 86H330Q417 86 470 50T524 -62Q524 -109 501 -147T426 -209T290 -232Q184 -232 120 -193T55 -74Q55 -46 68 -23T104 20Q77 40 72 76T93 147L137 203Q90 253 90 326Q90
375 113 416T181 483T289 508Q330 508 365 496H552V426L465 421V412Q486 373 486 326Q486 277 463 235T395 168T289 143ZM289 228Q333 228 361 254T390 326Q390 370 362 396T289 422Q244 422 216 396T187 326Q187 280 215 254T289 228ZM155 -66Q155 -106 193 -125T290
-144Q352 -144 388 -123T424 -64Q424 -32 398 -14T310 5H193Q155 -25 155 -66Z" />
<glyph unicode="h" glyph-name="h" d="M73 0V720H179V422Q199 459 243 483T342 508Q434 508 482 453T530 293V0H424V278Q424 340 394 374T311 408Q256 408 218 371T179 264V0H73Z" />
<glyph unicode="i" glyph-name="i" d="M290 572Q255 572 232 594T208 650Q208 683 231 705T290 727Q326 727 349 705T373 650Q373 617 350 595T290 572ZM91 0V92H247V371Q247 404 215 404H105V496H234Q296 496 324 468T353 377V92H509V0H91Z" />
<glyph unicode="j" glyph-name="j" d="M328 572Q293 572 270 594T246 650Q246 683 269 705T328 727Q364 727 387 705T411 650Q411 617 388 595T328 572ZM56 -220V-128H252Q285 -128 285 -95V371Q285 404 252 404H130V496H272Q334 496 362 468T391 377V-101Q391
-163 363 -191T272 -220H56Z" />
<glyph unicode="k" glyph-name="k" d="M98 0V720H204V288L394 496H527L320 276V268L554 0H425L204 255V0H98Z" />
<glyph unicode="l" glyph-name="l" d="M68 0V92H234V595Q234 628 202 628H82V720H221Q279 720 309 690T340 601V92H507V0H68Z" />
<glyph unicode="m" glyph-name="m" d="M25 0V496H113L122 438H127Q140 469 167 488T231 508Q267 508 294 490T334 438H338Q351 468 379 488T448 508Q503 508 531 472T560 371V0H458V350Q458 380 446 397T406 415Q379 415 362 394T344 335V0H241V350Q241 380 229
397T190 415Q163 415 145 394T127 335V0H25Z" />
<glyph unicode="n" glyph-name="n" d="M78 0V496H170L179 422H184Q204 458 246 483T343 508Q434 508 480 453T526 291V0H420V278Q420 340 394 374T312 408Q257 408 221 371T184 264V0H78Z" />
<glyph unicode="o" glyph-name="o" d="M300 -12Q229 -12 173 20T85 110T53 248Q53 327 85 385T173 476T301 508Q373 508 428 476T515 386T547 248Q547 169 515 111T428 20T300 -12ZM300 89Q338 89 370 106T421 158T441 248Q441 303 422 338T371 390T301 407Q263
407 231 390T180 338T160 248Q160 166 201 128T300 89Z" />
<glyph unicode="p" glyph-name="p" d="M69 -220V496H161L169 420H175Q195 457 235 482T332 508Q390 508 438 479T514 392T543 248Q543 163 514 105T434 18T322 -12Q267 -12 230 10T175 60V-220H69ZM304 89Q360 89 397 129T435 249Q435 329 398 368T304 407Q247
407 210 368T172 248Q172 169 209 129T304 89Z" />
<glyph unicode="q" glyph-name="q" d="M432 -220V64Q413 33 378 11T285 -12Q224 -12 174 17T94 105T64 248Q64 334 93 391T172 478T278 508Q337 508 374 486T432 425H438L447 496H538V-220H432ZM304 89Q361 89 398 129T436 248Q436 328 399 367T304 407Q247 407
210 368T172 249Q172 169 209 129T304 89Z" />
<glyph unicode="r" glyph-name="r" d="M77 0V92H198V371Q198 404 166 404H87V496H206Q247 496 273 473T299 407V395H304Q315 451 351 479T458 508H535V396H427Q368 396 336 355T304 257V92H458V0H77Z" />
<glyph unicode="s" glyph-name="s" d="M304 -12Q206 -12 148 34T82 156H191Q197 121 226 99T305 77Q352 77 377 96T403 142Q403 180 373 194T283 215Q232 221 191 238T125 286T101 363Q101 428 152 468T294 508Q385 508 435 467T493 355H391Q387 385 360 402T293
420Q252 420 228 405T204 364Q204 310 320 298Q375 292 418 278T486 233T511 147Q512 102 486 66T413 9T304 -12Z" />
<glyph unicode="t" glyph-name="t" d="M354 0Q281 0 238 35T195 162V406H70V496H144Q195 496 204 546L219 626H301V496H497V406H301V164Q301 125 318 110T379 94H495V0H354Z" />
<glyph unicode="u" glyph-name="u" d="M256 -12Q166 -12 120 43T73 205V496H179V218Q179 157 205 123T287 88Q342 88 379 125T416 232V496H522V0H430L421 74H416Q396 38 354 13T256 -12Z" />
<glyph unicode="v" glyph-name="v" d="M236 0L21 496H141L300 112L460 496H579L363 0H236Z" />
<glyph unicode="w" glyph-name="w" d="M116 0L8 496H112L172 148L243 496H357L428 148L488 496H592L484 0H375L300 358L225 0H116Z" />
<glyph unicode="x" glyph-name="x" d="M60 0L230 248L54 496H172L300 311L428 496H546L370 248L540 0H422L300 185L177 0H60Z" />
<glyph unicode="y" glyph-name="y" d="M143 -220L261 41H232L39 496H154L302 133L459 496H570L255 -220H143Z" />
<glyph unicode="z" glyph-name="z" d="M94 0V95L369 399H98V496H501V401L223 97H506V0H94Z" />
<glyph unicode="{" glyph-name="braceleft" d="M393 -185Q318 -185 273 -146T228 -29Q228 9 233 39T244 101T250 175Q250 214 228 240T152 266H107V360H152Q205 360 227 386T250 451Q250 494 245 525T234 587T228 656Q228 733 273 772T393 811H495V718H409Q370
718 351 700T331 641Q331 608 336 580T346 522T351 452Q351 399 329 364T268 316V310Q306 298 328 263T351 174Q351 134 346 104T336 47T331 -15Q331 -55 350 -73T409 -92H495V-185H393Z" />
<glyph unicode="|" glyph-name="bar" d="M247 -270V720H353V-270H247Z" />
<glyph unicode="}" glyph-name="braceright" d="M105 -185V-92H191Q230 -92 249 -74T269 -15Q269 19 264 46T254 104T249 174Q249 227 272 262T332 310V316Q295 328 272 363T249 452Q249 492 254 522T264 580T269 641Q269 682 250 700T191 718H105V811H207Q282
811 327 772T372 656Q372 618 367 588T356 526T350 451Q350 412 372 386T448 360H493V266H448Q395 266 373 240T350 175Q350 133 355 101T366 39T372 -29Q372 -107 327 -146T207 -185H105Z" />
<glyph unicode="~" glyph-name="asciitilde" d="M386 241Q357 241 334 250T290 272T251 293T212 303Q187 303 172 286T152 240H64Q70 321 111 359T214 397Q243 397 266 388T310 366T349 345T388 335Q413 335 428 352T448 399H536Q530 317 489 279T386 241Z" />
<glyph unicode="&#xa0;" glyph-name="uni00A0" />
<glyph unicode="&#xa1;" glyph-name="exclamdown" d="M300 341Q262 341 237 365T211 424Q211 459 236 483T300 508Q338 508 363 484T389 424Q389 389 364 365T300 341ZM234 -220L251 247H350L366 -220H234Z" />
<glyph unicode="&#xa2;" glyph-name="cent" d="M274 0V92Q213 100 167 133T95 222T69 350Q69 422 95 477T168 566T274 608V700H343V608Q423 600 472 554T536 432H426Q410 492 343 506V192Q375 199 395 219T426 268H536Q518 194 470 148T343 92V0H274ZM176 350Q176
284 204 245T274 194V505Q233 494 205 455T176 350Z" />
<glyph unicode="&#xa3;" glyph-name="sterling" d="M71 0V64Q109 105 131 147T154 248Q154 268 150 289H40V366H126Q114 397 104 430T94 503Q94 567 122 614T201 686T318 712Q394 712 443 685T516 610T542 501H442Q439 553 408 587T318 622Q270 622 233 593T196
499Q196 466 206 433T229 366H415V289H251Q254 269 254 251Q254 207 240 170T193 97V91H543V0H71Z" />
<glyph unicode="&#xa4;" glyph-name="currency" d="M143 88L91 140L153 202Q129 244 129 297Q129 350 154 391L91 454L143 506L204 445Q247 472 300 472Q353 472 395 444L457 506L509 454L446 391Q471 349 471 297Q471 245 446 203L509 140L457 88L395 150Q353
122 300 122Q246 122 204 149L143 88ZM300 196Q323 196 344 207T380 241T395 297Q395 347 365 372T300 398Q263 398 234 373T205 297Q205 247 234 222T300 196Z" />
<glyph unicode="&#xa5;" glyph-name="yen" d="M65 152V233H247V266L224 310H65V391H180L16 700H137L300 378L463 700H584L420 391H535V310H376L353 266V233H535V152H353V0H247V152H65Z" />
<glyph unicode="&#xa6;" glyph-name="brokenbar" d="M247 312V720H353V312H247ZM247 -270V138H353V-270H247Z" />
<glyph unicode="&#xa7;" glyph-name="section" d="M296 -232Q193 -232 132 -180T68 -34H180Q181 -58 194 -81T234 -120T298 -137Q345 -138 377 -115T410 -51Q410 -18 393 4T340 44T244 82Q189 100 146 125T79 188T54 286Q54 325 70 357T112 411Q76 459 76 527Q76
610 136 661T301 712Q403 712 465 660T529 514H416Q416 539 402 562T362 601T298 617Q251 618 219 595T187 531Q187 482 226 455T353 398Q408 380 450 355T517 294T542 202Q542 160 527 127T483 70Q520 22 520 -47Q520 -129 461 -180T296 -232ZM351 152Q383 142
409 128Q431 152 431 184Q431 221 412 245T351 288T245 328Q212 338 186 352Q166 328 166 294Q166 259 185 235T245 192T351 152Z" />
<glyph unicode="&#xa8;" glyph-name="dieresis" d="M396 564Q369 564 351 583T333 627Q333 653 351 671T396 690Q422 690 439 672T457 627Q457 602 440 583T396 564ZM205 564Q179 564 161 583T143 627Q143 653 161 671T205 690Q231 690 249 672T267 627Q267 602
249 583T205 564Z" />
<glyph unicode="&#xa9;" glyph-name="copyright" d="M300 60Q218 60 152 98T48 202T10 350Q10 433 48 498T152 602T300 640Q383 640 448 602T552 499T590 350Q590 268 552 202T449 98T300 60ZM300 105Q370 105 424 137T511 224T543 350Q543 421 511 476T425 563T300
595Q231 595 176 563T89 476T57 350Q57 280 89 225T176 137T300 105ZM299 170Q232 170 186 217T140 350Q140 408 162 448T220 509T299 530Q362 530 398 499T445 416H396Q386 448 362 466T299 484Q256 484 223 452T190 350Q190 281 223 248T299 215Q340 215 364
234T397 284H445Q433 230 396 200T299 170Z" />
<glyph unicode="&#xaa;" glyph-name="ordfeminine" d="M260 290Q190 290 155 326T119 411Q119 467 160 501T283 535H383V544Q383 584 363 606T303 629Q271 629 249 615T218 569H127Q134 633 181 669T304 706Q393 706 434 663T475 544V300H396L389 352H382Q365
325 338 308T260 290ZM280 366Q326 366 352 396T382 470H293Q216 470 216 417Q216 393 234 380T280 366Z" />
<glyph unicode="&#xab;" glyph-name="guillemotleft" d="M401 94L280 295L401 496H510L395 298V292L510 94H401ZM462 94L341 295L462 496H571L456 298V292L571 94H462Z" />
<glyph unicode="&#xac;" glyph-name="logicalnot" d="M437 118V302H68V398H532V118H437Z" />
<glyph unicode="&#xad;" glyph-name="uni00AD" d="M128 305V395H472V305H128Z" />
<glyph unicode="&#xae;" glyph-name="registered" d="M300 60Q218 60 152 98T48 202T10 350Q10 433 48 498T152 602T300 640Q383 640 448 602T552 499T590 350Q590 268 552 202T449 98T300 60ZM300 105Q370 105 424 137T511 224T543 350Q543 421 511 476T425 563T300
595Q231 595 176 563T89 476T57 350Q57 280 89 225T176 137T300 105ZM195 175V525H302Q362 525 391 497T420 424Q420 390 403 365T351 329L430 175H374L301 322H245V175H195ZM245 368H301Q338 368 355 384T372 424Q372 449 356 464T301 479H245V368Z" />
<glyph unicode="&#xaf;" glyph-name="overscore" d="M130 589V667H470V589H130Z" />
<glyph unicode="&#xb0;" glyph-name="degree" d="M300 407Q259 407 224 425T169 478T148 559Q148 605 168 639T224 693T300 712Q342 712 376 693T431 640T452 559Q452 513 432 479T377 426T300 407ZM300 479Q331 479 354 501T377 560Q377 598 354 619T300 641Q269
641 246 620T223 560Q223 523 246 501T300 479Z" />
<glyph unicode="&#xb1;" glyph-name="plusminus" d="M252 174V302H68V398H252V526H348V398H532V302H348V174H252ZM68 0V96H532V0H68Z" />
<glyph unicode="&#xb2;" glyph-name="uni00B2" d="M156 280V347Q213 392 257 431T327 506T353 576Q353 601 340 616T301 632Q271 632 255 613T238 567H157Q159 640 200 673T301 707Q367 707 403 673T439 579Q439 532 414 491T350 414T276 350H450V280H156Z" />
<glyph unicode="&#xb3;" glyph-name="uni00B3" d="M300 273Q236 273 192 309T146 413H229Q231 384 250 367T301 350Q333 350 351 365T370 405Q370 437 347 450T290 464H251V536H283Q316 536 334 547T352 584Q352 606 338 618T298 630Q271 630 255 616T238 579H155Q158
638 197 672T298 707Q368 707 401 675T434 594Q434 563 417 542T375 511V507Q409 498 430 472T451 401Q451 350 412 312T300 273Z" />
<glyph unicode="&#xb4;" glyph-name="acute" d="M191 534V624L409 737V638L191 534Z" />
<glyph unicode="&#xb5;" glyph-name="uni00B5" d="M73 -220V496H179V218Q179 157 205 123T287 88Q342 88 379 125T416 232V496H522V0H430L421 74H416Q396 38 358 13T272 -12Q244 -12 219 -4T179 21V-220H73Z" />
<glyph unicode="&#xb6;" glyph-name="paragraph" d="M301 -100V299H293Q212 299 160 325T83 397T57 499Q57 557 82 602T160 673T293 700H525V-100H453V634H373V-100H301Z" />
<glyph unicode="&#xb7;" glyph-name="middot" d="M300 267Q263 267 237 291T211 351Q211 386 237 410T300 434Q338 434 363 410T389 351Q389 316 364 292T300 267Z" />
<glyph unicode="&#xb8;" glyph-name="cedilla" d="M226 -261V-197H335Q360 -197 374 -187T389 -156Q389 -135 375 -126T335 -116H273V7H341V-56H346Q402 -56 436 -80T471 -157Q471 -208 435 -234T345 -261H226Z" />
<glyph unicode="&#xb9;" glyph-name="uni00B9" d="M155 280V354H252V602L159 586V657L289 700H336V354H443V280H155Z" />
<glyph unicode="&#xba;" glyph-name="ordmasculine" d="M300 290Q243 290 198 316T127 389T101 498Q101 561 127 608T198 680T301 706Q359 706 403 681T474 608T500 498Q500 436 474 389T403 316T300 290ZM300 377Q344 377 376 407T408 498Q408 560 376 589T301
619Q258 619 225 590T192 498Q192 437 224 407T300 377Z" />
<glyph unicode="&#xbb;" glyph-name="guillemotright" d="M285 94L400 292V298L285 496H394L515 295L394 94H285ZM346 94L461 292V298L346 496H455L576 295L455 94H346Z" />
<glyph unicode="&#xbc;" glyph-name="onequarter" d="M199 417V482H264V612L202 605V669L299 699H339V482H413V417H199ZM105 322V382H496V322H105ZM304 0V49H165V104L291 281H379V109H406V49H379V0H304ZM247 109H309V202L247 109Z" />
<glyph unicode="&#xbd;" glyph-name="onehalf" d="M199 417V482H264V612L202 605V669L299 699H339V482H413V417H199ZM105 322V382H496V322H105ZM191 0V60Q247 99 286 133T326 195Q326 206 320 213T299 220Q282 220 273 210T264 187H192Q195 242 226 264T299 286Q349
286 375 263T402 199Q402 169 384 143T342 97T295 61H410V0H191Z" />
<glyph unicode="&#xbe;" glyph-name="threequarters" d="M298 413Q249 413 219 439T185 510H256Q258 494 270 486T299 477Q316 477 327 483T339 505Q339 521 326 527T292 534H263V591H290Q306 591 317 595T329 614Q329 627 320 633T297 639Q280 639 271 631T262
612H191Q193 654 221 679T297 704Q350 704 374 682T399 625Q399 606 387 592T358 571V569Q381 564 396 547T411 498Q411 464 383 439T298 413ZM105 322V382H496V322H105ZM304 0V49H165V104L291 281H379V109H406V49H379V0H304ZM247 109H309V202L247 109Z" />
<glyph unicode="&#xbf;" glyph-name="questiondown" d="M329 341Q292 341 266 365T240 424Q240 459 266 483T329 508Q367 508 392 484T418 424Q418 389 393 365T329 341ZM291 -232Q185 -232 126 -176T66 -26Q66 42 96 86T174 153T278 182L281 282H371L378 106H340Q256
106 213 75T169 -24Q169 -75 201 -106T291 -137Q345 -137 378 -107T416 -28H516Q515 -87 488 -133T410 -206T291 -232Z" />
<glyph unicode="&#xc0;" glyph-name="Agrave" d="M28 0L237 700H363L572 0H457L410 168H190L143 0H28ZM297 550L214 253H386L303 550H297ZM359 738L141 842V941L359 828V738Z" />
<glyph unicode="&#xc1;" glyph-name="Aacute" d="M28 0L237 700H363L572 0H457L410 168H190L143 0H28ZM297 550L214 253H386L303 550H297ZM241 738V828L459 941V842L241 738Z" />
<glyph unicode="&#xc2;" glyph-name="Acircumflex" d="M28 0L237 700H363L572 0H457L410 168H190L143 0H28ZM297 550L214 253H386L303 550H297ZM159 751V836L300 916L441 836V751L303 831H297L159 751Z" />
<glyph unicode="&#xc3;" glyph-name="Atilde" d="M28 0L237 700H363L572 0H457L410 168H190L143 0H28ZM297 550L214 253H386L303 550H297ZM363 777Q335 777 315 788T278 810T243 821Q223 821 213 810T199 779H134Q137 832 164 861T236 891Q264 891 284 880T321
858T356 847Q377 847 387 859T401 890H466Q464 838 437 808T363 777Z" />
<glyph unicode="&#xc4;" glyph-name="Adieresis" d="M28 0L237 700H363L572 0H457L410 168H190L143 0H28ZM297 550L214 253H386L303 550H297ZM396 768Q369 768 351 787T333 831Q333 857 351 875T396 894Q422 894 439 876T457 831Q457 806 440 787T396 768ZM205
768Q179 768 161 787T143 831Q143 857 161 875T205 894Q231 894 249 876T267 831Q267 806 249 787T205 768Z" />
<glyph unicode="&#xc5;" glyph-name="Aring" d="M28 0L237 700H363L572 0H457L410 168H190L143 0H28ZM297 550L214 253H386L303 550H297ZM300 756Q255 756 223 785T191 863Q191 913 223 942T300 971Q345 971 377 942T409 863Q409 814 377 785T300 756ZM300 807Q323
807 339 822T355 863Q355 889 339 904T300 920Q277 920 261 905T245 863Q245 837 261 822T300 807Z" />
<glyph unicode="&#xc6;" glyph-name="AE" d="M0 0L215 700H594V605H406V401H564V307H406V95H594V0H300V168H163L115 0H0ZM287 605L187 253H300V605H287Z" />
<glyph unicode="&#xc7;" glyph-name="Ccedilla" d="M302 -12Q214 -12 153 33T59 159T26 349Q26 458 58 539T153 666T302 712Q415 712 482 651T560 484H443Q434 539 399 575T301 612Q222 612 178 542T134 349Q134 227 178 158T301 88Q365 88 399 121T443 210H560Q544
107 479 48T302 -12ZM476 -261V-197H585Q610 -197 624 -187T639 -156Q639 -135 625 -126T585 -116H523V7H591V-56H596Q652 -56 686 -80T721 -157Q721 -208 685 -234T595 -261H476Z" />
<glyph unicode="&#xc8;" glyph-name="Egrave" d="M80 0V700H527V605H186V401H497V307H186V95H527V0H80ZM363 738L145 842V941L363 828V738Z" />
<glyph unicode="&#xc9;" glyph-name="Eacute" d="M80 0V700H527V605H186V401H497V307H186V95H527V0H80ZM245 738V828L463 941V842L245 738Z" />
<glyph unicode="&#xca;" glyph-name="Ecircumflex" d="M80 0V700H527V605H186V401H497V307H186V95H527V0H80ZM163 751V836L304 916L445 836V751L307 831H301L163 751Z" />
<glyph unicode="&#xcb;" glyph-name="Edieresis" d="M80 0V700H527V605H186V401H497V307H186V95H527V0H80ZM400 768Q373 768 355 787T337 831Q337 857 355 875T400 894Q426 894 443 876T461 831Q461 806 444 787T400 768ZM209 768Q183 768 165 787T147 831Q147
857 165 875T209 894Q235 894 253 876T271 831Q271 806 253 787T209 768Z" />
<glyph unicode="&#xcc;" glyph-name="Igrave" d="M95 0V94H247V606H97V700H503V606H353V94H505V0H95ZM359 738L141 842V941L359 828V738Z" />
<glyph unicode="&#xcd;" glyph-name="Iacute" d="M95 0V94H247V606H97V700H503V606H353V94H505V0H95ZM241 738V828L459 941V842L241 738Z" />
<glyph unicode="&#xce;" glyph-name="Icircumflex" d="M95 0V94H247V606H97V700H503V606H353V94H505V0H95ZM159 751V836L300 916L441 836V751L303 831H297L159 751Z" />
<glyph unicode="&#xcf;" glyph-name="Idieresis" d="M95 0V94H247V606H97V700H503V606H353V94H505V0H95ZM396 768Q369 768 351 787T333 831Q333 857 351 875T396 894Q422 894 439 876T457 831Q457 806 440 787T396 768ZM205 768Q179 768 161 787T143 831Q143 857
161 875T205 894Q231 894 249 876T267 831Q267 806 249 787T205 768Z" />
<glyph unicode="&#xd0;" glyph-name="Eth" d="M77 0V305H5V395H77V700H225Q394 700 476 607T558 350Q558 187 476 94T225 0H77ZM183 98H221Q343 98 397 166T451 350Q451 465 397 533T221 602H183V395H320V305H183V98Z" />
<glyph unicode="&#xd1;" glyph-name="Ntilde" d="M51 0V700H155L448 187V700H549V0H445L152 513V0H51ZM363 777Q335 777 315 788T278 810T243 821Q223 821 213 810T199 779H134Q137 832 164 861T236 891Q264 891 284 880T321 858T356 847Q377 847 387 859T401
890H466Q464 838 437 808T363 777Z" />
<glyph unicode="&#xd2;" glyph-name="Ograve" d="M300 -12Q215 -12 153 32T58 157T25 350Q25 462 58 543T153 668T300 712Q386 712 447 668T542 543T575 350Q575 238 542 157T448 32T300 -12ZM300 88Q375 88 421 155T467 350Q467 477 421 544T300 612Q224 612
179 545T133 350Q133 223 178 156T300 88ZM359 738L141 842V941L359 828V738Z" />
<glyph unicode="&#xd3;" glyph-name="Oacute" d="M300 -12Q215 -12 153 32T58 157T25 350Q25 462 58 543T153 668T300 712Q386 712 447 668T542 543T575 350Q575 238 542 157T448 32T300 -12ZM300 88Q375 88 421 155T467 350Q467 477 421 544T300 612Q224 612
179 545T133 350Q133 223 178 156T300 88ZM241 738V828L459 941V842L241 738Z" />
<glyph unicode="&#xd4;" glyph-name="Ocircumflex" d="M300 -12Q215 -12 153 32T58 157T25 350Q25 462 58 543T153 668T300 712Q386 712 447 668T542 543T575 350Q575 238 542 157T448 32T300 -12ZM300 88Q375 88 421 155T467 350Q467 477 421 544T300 612Q224
612 179 545T133 350Q133 223 178 156T300 88ZM159 751V836L300 916L441 836V751L303 831H297L159 751Z" />
<glyph unicode="&#xd5;" glyph-name="Otilde" d="M300 -12Q215 -12 153 32T58 157T25 350Q25 462 58 543T153 668T300 712Q386 712 447 668T542 543T575 350Q575 238 542 157T448 32T300 -12ZM300 88Q375 88 421 155T467 350Q467 477 421 544T300 612Q224 612
179 545T133 350Q133 223 178 156T300 88ZM363 777Q335 777 315 788T278 810T243 821Q223 821 213 810T199 779H134Q137 832 164 861T236 891Q264 891 284 880T321 858T356 847Q377 847 387 859T401 890H466Q464 838 437 808T363 777Z" />
<glyph unicode="&#xd6;" glyph-name="Odieresis" d="M300 -12Q215 -12 153 32T58 157T25 350Q25 462 58 543T153 668T300 712Q386 712 447 668T542 543T575 350Q575 238 542 157T448 32T300 -12ZM300 88Q375 88 421 155T467 350Q467 477 421 544T300 612Q224 612
179 545T133 350Q133 223 178 156T300 88ZM396 768Q369 768 351 787T333 831Q333 857 351 875T396 894Q422 894 439 876T457 831Q457 806 440 787T396 768ZM205 768Q179 768 161 787T143 831Q143 857 161 875T205 894Q231 894 249 876T267 831Q267 806 249 787T205
768Z" />
<glyph unicode="&#xd7;" glyph-name="multiply" d="M141 124L74 191L233 350L74 509L141 576L300 417L459 576L526 509L367 350L526 191L459 124L300 283L141 124Z" />
<glyph unicode="&#xd8;" glyph-name="Oslash" d="M23 -20L92 93Q60 140 43 205T25 350Q25 462 58 543T153 668T300 712Q384 712 446 669L477 720H578L508 606Q540 559 557 495T575 350Q575 238 542 157T448 32T300 -12Q217 -12 155 30L124 -20H23ZM133 350Q133
261 157 198L391 579Q352 612 300 612Q224 612 179 545T133 350ZM300 88Q375 88 421 155T467 350Q467 438 443 500L210 120Q248 88 300 88Z" />
<glyph unicode="&#xd9;" glyph-name="Ugrave" d="M298 -12Q227 -12 172 17T84 105T52 256V700H158V250Q158 170 196 127T300 83Q366 83 404 126T442 250V700H548V256Q548 165 515 106T426 17T298 -12ZM359 738L141 842V941L359 828V738Z" />
<glyph unicode="&#xda;" glyph-name="Uacute" d="M298 -12Q227 -12 172 17T84 105T52 256V700H158V250Q158 170 196 127T300 83Q366 83 404 126T442 250V700H548V256Q548 165 515 106T426 17T298 -12ZM241 738V828L459 941V842L241 738Z" />
<glyph unicode="&#xdb;" glyph-name="Ucircumflex" d="M298 -12Q227 -12 172 17T84 105T52 256V700H158V250Q158 170 196 127T300 83Q366 83 404 126T442 250V700H548V256Q548 165 515 106T426 17T298 -12ZM159 751V836L300 916L441 836V751L303 831H297L159 751Z" />
<glyph unicode="&#xdc;" glyph-name="Udieresis" d="M298 -12Q227 -12 172 17T84 105T52 256V700H158V250Q158 170 196 127T300 83Q366 83 404 126T442 250V700H548V256Q548 165 515 106T426 17T298 -12ZM396 768Q369 768 351 787T333 831Q333 857 351 875T396
894Q422 894 439 876T457 831Q457 806 440 787T396 768ZM205 768Q179 768 161 787T143 831Q143 857 161 875T205 894Q231 894 249 876T267 831Q267 806 249 787T205 768Z" />
<glyph unicode="&#xdd;" glyph-name="Yacute" d="M247 0V266L16 700H137L300 378L463 700H584L353 266V0H247ZM241 738V828L459 941V842L241 738Z" />
<glyph unicode="&#xde;" glyph-name="Thorn" d="M71 0V700H177V563H308Q388 563 440 536T517 460T542 350Q542 289 517 241T440 165T308 137H177V0H71ZM177 232H303Q371 232 402 264T434 350Q434 404 403 436T303 468H177V232Z" />
<glyph unicode="&#xdf;" glyph-name="germandbls" d="M388 -12Q301 -12 253 36T201 172H304Q306 132 328 107T391 81Q429 81 451 101T473 157Q473 192 452 213T381 252Q331 270 300 299T268 376Q268 406 278 425T304 458T334 482T359 508T370 543Q370 580 343
602T271 625Q215 625 187 593T159 503V0H53V503Q53 564 77 613T150 691T272 720Q369 720 422 673T475 553Q475 511 460 487T425 447T390 419T375 387Q375 368 393 354T461 321Q520 300 549 262T578 164Q578 114 556 74T491 11T388 -12Z" />
<glyph unicode="&#xe0;" glyph-name="agrave" d="M255 -12Q196 -12 156 8T96 63T76 139Q76 212 129 253T281 294H409V305Q409 417 305 417Q262 417 233 399T193 339H87Q95 417 154 462T305 508Q415 508 465 454T515 305V0H425L416 73H409Q387 38 354 13T255 -12ZM275
77Q340 77 372 116T408 217H292Q235 217 212 199T188 147Q188 114 211 96T275 77ZM620 534L402 638V737L620 624V534Z" />
<glyph unicode="&#xe1;" glyph-name="aacute" d="M255 -12Q196 -12 156 8T96 63T76 139Q76 212 129 253T281 294H409V305Q409 417 305 417Q262 417 233 399T193 339H87Q95 417 154 462T305 508Q415 508 465 454T515 305V0H425L416 73H409Q387 38 354 13T255 -12ZM275
77Q340 77 372 116T408 217H292Q235 217 212 199T188 147Q188 114 211 96T275 77ZM246 534V624L464 737V638L246 534Z" />
<glyph unicode="&#xe2;" glyph-name="acircumflex" d="M255 -12Q196 -12 156 8T96 63T76 139Q76 212 129 253T281 294H409V305Q409 417 305 417Q262 417 233 399T193 339H87Q95 417 154 462T305 508Q415 508 465 454T515 305V0H425L416 73H409Q387 38 354 13T255
-12ZM275 77Q340 77 372 116T408 217H292Q235 217 212 199T188 147Q188 114 211 96T275 77ZM164 547V632L305 712L446 632V547L308 627H302L164 547Z" />
<glyph unicode="&#xe3;" glyph-name="atilde" d="M255 -12Q196 -12 156 8T96 63T76 139Q76 212 129 253T281 294H409V305Q409 417 305 417Q262 417 233 399T193 339H87Q95 417 154 462T305 508Q415 508 465 454T515 305V0H425L416 73H409Q387 38 354 13T255 -12ZM275
77Q340 77 372 116T408 217H292Q235 217 212 199T188 147Q188 114 211 96T275 77ZM368 573Q340 573 320 584T283 606T248 617Q228 617 218 606T204 575H139Q142 628 169 657T241 687Q269 687 289 676T326 654T361 643Q382 643 392 655T406 686H471Q469 634 442
604T368 573Z" />
<glyph unicode="&#xe4;" glyph-name="adieresis" d="M255 -12Q196 -12 156 8T96 63T76 139Q76 212 129 253T281 294H409V305Q409 417 305 417Q262 417 233 399T193 339H87Q95 417 154 462T305 508Q415 508 465 454T515 305V0H425L416 73H409Q387 38 354 13T255
-12ZM275 77Q340 77 372 116T408 217H292Q235 217 212 199T188 147Q188 114 211 96T275 77ZM401 564Q374 564 356 583T338 627Q338 653 356 671T401 690Q427 690 444 672T462 627Q462 602 445 583T401 564ZM210 564Q184 564 166 583T148 627Q148 653 166 671T210
690Q236 690 254 672T272 627Q272 602 254 583T210 564Z" />
<glyph unicode="&#xe5;" glyph-name="aring" d="M255 -12Q196 -12 156 8T96 63T76 139Q76 212 129 253T281 294H409V305Q409 417 305 417Q262 417 233 399T193 339H87Q95 417 154 462T305 508Q415 508 465 454T515 305V0H425L416 73H409Q387 38 354 13T255 -12ZM275
77Q340 77 372 116T408 217H292Q235 217 212 199T188 147Q188 114 211 96T275 77ZM305 552Q260 552 228 581T196 659Q196 709 228 738T305 767Q350 767 382 738T414 659Q414 610 382 581T305 552ZM305 603Q328 603 344 618T360 659Q360 685 344 700T305 716Q282
716 266 701T250 659Q250 633 266 618T305 603Z" />
<glyph unicode="&#xe6;" glyph-name="ae" d="M153 -12Q110 -12 79 8T31 62T14 136Q14 213 62 257T199 302H248V340Q248 379 232 398T188 417Q162 417 145 401T125 349H27Q30 421 74 464T188 508Q229 508 258 492T306 446Q326 474 356 491T424 508Q511 508 551
444T592 272Q592 262 592 249T590 224H350Q350 155 370 119T420 83Q470 83 482 156H580Q575 109 557 71T506 10T420 -12Q377 -12 343 13T295 75H290Q273 36 238 12T153 -12ZM352 302H492Q490 356 473 386T423 416Q392 416 373 386T352 302ZM177 77Q206 77 227 102T248
173V224H211Q166 224 143 203T119 144Q119 113 134 95T177 77Z" />
<glyph unicode="&#xe7;" glyph-name="ccedilla" d="M307 -12Q238 -12 184 20T98 110T67 248Q67 327 98 385T184 475T307 508Q402 508 460 461T535 330H424Q414 366 384 387T306 408Q272 408 242 390T193 337T174 248Q174 196 192 160T241 106T306 87Q354 87 383
108T424 166H535Q515 84 457 36T307 -12ZM481 -261V-197H590Q615 -197 629 -187T644 -156Q644 -135 630 -126T590 -116H528V7H596V-56H601Q657 -56 691 -80T726 -157Q726 -208 690 -234T600 -261H481Z" />
<glyph unicode="&#xe8;" glyph-name="egrave" d="M306 -12Q234 -12 179 20T93 111T62 246Q62 324 92 383T178 475T307 508Q379 508 431 476T511 389T540 270Q540 260 540 249T539 223H166Q171 154 211 119T305 83Q352 83 379 102T420 156H527Q509 85 452 37T306
-12ZM306 416Q257 416 219 387T170 304H434Q430 354 395 385T306 416ZM620 534L402 638V737L620 624V534Z" />
<glyph unicode="&#xe9;" glyph-name="eacute" d="M306 -12Q234 -12 179 20T93 111T62 246Q62 324 92 383T178 475T307 508Q379 508 431 476T511 389T540 270Q540 260 540 249T539 223H166Q171 154 211 119T305 83Q352 83 379 102T420 156H527Q509 85 452 37T306
-12ZM306 416Q257 416 219 387T170 304H434Q430 354 395 385T306 416ZM246 534V624L464 737V638L246 534Z" />
<glyph unicode="&#xea;" glyph-name="ecircumflex" d="M306 -12Q234 -12 179 20T93 111T62 246Q62 324 92 383T178 475T307 508Q379 508 431 476T511 389T540 270Q540 260 540 249T539 223H166Q171 154 211 119T305 83Q352 83 379 102T420 156H527Q509 85 452
37T306 -12ZM306 416Q257 416 219 387T170 304H434Q430 354 395 385T306 416ZM164 547V632L305 712L446 632V547L308 627H302L164 547Z" />
<glyph unicode="&#xeb;" glyph-name="edieresis" d="M306 -12Q234 -12 179 20T93 111T62 246Q62 324 92 383T178 475T307 508Q379 508 431 476T511 389T540 270Q540 260 540 249T539 223H166Q171 154 211 119T305 83Q352 83 379 102T420 156H527Q509 85 452 37T306
-12ZM306 416Q257 416 219 387T170 304H434Q430 354 395 385T306 416ZM401 564Q374 564 356 583T338 627Q338 653 356 671T401 690Q427 690 444 672T462 627Q462 602 445 583T401 564ZM210 564Q184 564 166 583T148 627Q148 653 166 671T210 690Q236 690 254 672T272
627Q272 602 254 583T210 564Z" />
<glyph unicode="&#xec;" glyph-name="igrave" d="M91 0V92H247V371Q247 404 215 404H105V496H234Q296 496 324 468T353 377V92H509V0H91ZM615 534L397 638V737L615 624V534Z" />
<glyph unicode="&#xed;" glyph-name="iacute" d="M91 0V92H247V371Q247 404 215 404H105V496H234Q296 496 324 468T353 377V92H509V0H91ZM241 534V624L459 737V638L241 534Z" />
<glyph unicode="&#xee;" glyph-name="icircumflex" d="M91 0V92H247V371Q247 404 215 404H105V496H234Q296 496 324 468T353 377V92H509V0H91ZM159 547V632L300 712L441 632V547L303 627H297L159 547Z" />
<glyph unicode="&#xef;" glyph-name="idieresis" d="M91 0V92H247V371Q247 404 215 404H105V496H234Q296 496 324 468T353 377V92H509V0H91ZM396 564Q369 564 351 583T333 627Q333 653 351 671T396 690Q422 690 439 672T457 627Q457 602 440 583T396 564ZM205
564Q179 564 161 583T143 627Q143 653 161 671T205 690Q231 690 249 672T267 627Q267 602 249 583T205 564Z" />
<glyph unicode="&#xf0;" glyph-name="eth" d="M304 -12Q230 -12 173 22T83 115T50 246Q50 321 81 379T168 471T291 505Q337 505 376 489T445 434H451Q421 518 369 585L224 538V611L319 642Q299 662 278 681T231 720H354Q383 697 409 672L523 709V636L458 615Q508
547 535 463T563 280Q563 189 531 124T441 23T304 -12ZM307 88Q348 88 381 107T434 162T454 247Q454 296 434 331T381 386T307 405Q266 405 233 386T179 332T159 247Q159 198 179 162T232 107T307 88Z" />
<glyph unicode="&#xf1;" glyph-name="ntilde" d="M78 0V496H170L179 422H184Q204 458 246 483T343 508Q434 508 480 453T526 291V0H420V278Q420 340 394 374T312 408Q257 408 221 371T184 264V0H78ZM388 573Q360 573 340 584T303 606T268 617Q248 617 238 606T224
575H159Q162 628 189 657T261 687Q289 687 309 676T346 654T381 643Q402 643 412 655T426 686H491Q489 634 462 604T388 573Z" />
<glyph unicode="&#xf2;" glyph-name="ograve" d="M300 -12Q229 -12 173 20T85 110T53 248Q53 327 85 385T173 476T301 508Q373 508 428 476T515 386T547 248Q547 169 515 111T428 20T300 -12ZM300 89Q338 89 370 106T421 158T441 248Q441 303 422 338T371 390T301
407Q263 407 231 390T180 338T160 248Q160 166 201 128T300 89ZM615 534L397 638V737L615 624V534Z" />
<glyph unicode="&#xf3;" glyph-name="oacute" d="M300 -12Q229 -12 173 20T85 110T53 248Q53 327 85 385T173 476T301 508Q373 508 428 476T515 386T547 248Q547 169 515 111T428 20T300 -12ZM300 89Q338 89 370 106T421 158T441 248Q441 303 422 338T371 390T301
407Q263 407 231 390T180 338T160 248Q160 166 201 128T300 89ZM241 534V624L459 737V638L241 534Z" />
<glyph unicode="&#xf4;" glyph-name="ocircumflex" d="M300 -12Q229 -12 173 20T85 110T53 248Q53 327 85 385T173 476T301 508Q373 508 428 476T515 386T547 248Q547 169 515 111T428 20T300 -12ZM300 89Q338 89 370 106T421 158T441 248Q441 303 422 338T371
390T301 407Q263 407 231 390T180 338T160 248Q160 166 201 128T300 89ZM159 547V632L300 712L441 632V547L303 627H297L159 547Z" />
<glyph unicode="&#xf5;" glyph-name="otilde" d="M300 -12Q229 -12 173 20T85 110T53 248Q53 327 85 385T173 476T301 508Q373 508 428 476T515 386T547 248Q547 169 515 111T428 20T300 -12ZM300 89Q338 89 370 106T421 158T441 248Q441 303 422 338T371 390T301
407Q263 407 231 390T180 338T160 248Q160 166 201 128T300 89ZM363 573Q335 573 315 584T278 606T243 617Q223 617 213 606T199 575H134Q137 628 164 657T236 687Q264 687 284 676T321 654T356 643Q377 643 387 655T401 686H466Q464 634 437 604T363 573Z" />
<glyph unicode="&#xf6;" glyph-name="odieresis" d="M300 -12Q229 -12 173 20T85 110T53 248Q53 327 85 385T173 476T301 508Q373 508 428 476T515 386T547 248Q547 169 515 111T428 20T300 -12ZM300 89Q338 89 370 106T421 158T441 248Q441 303 422 338T371 390T301
407Q263 407 231 390T180 338T160 248Q160 166 201 128T300 89ZM396 564Q369 564 351 583T333 627Q333 653 351 671T396 690Q422 690 439 672T457 627Q457 602 440 583T396 564ZM205 564Q179 564 161 583T143 627Q143 653 161 671T205 690Q231 690 249 672T267
627Q267 602 249 583T205 564Z" />
<glyph unicode="&#xf7;" glyph-name="divide" d="M68 302V398H532V302H68ZM300 54Q263 54 237 78T211 138Q211 173 237 197T300 221Q338 221 363 197T389 138Q389 103 364 79T300 54ZM300 479Q263 479 237 503T211 563Q211 598 237 622T300 646Q338 646 363 622T389
563Q389 528 364 504T300 479Z" />
<glyph unicode="&#xf8;" glyph-name="oslash" d="M40 -20L112 71Q84 104 69 149T53 248Q53 327 85 385T173 476T301 508Q374 508 431 474L464 516H559L488 426Q516 393 531 348T547 248Q547 169 515 111T428 20T300 -12Q226 -12 169 23L135 -20H40ZM160 248Q160
220 165 198T180 157L366 392Q337 407 301 407Q263 407 231 390T180 338T160 248ZM300 89Q338 89 370 106T421 158T441 248Q441 276 436 299T420 340L233 104Q263 89 300 89Z" />
<glyph unicode="&#xf9;" glyph-name="ugrave" d="M256 -12Q166 -12 120 43T73 205V496H179V218Q179 157 205 123T287 88Q342 88 379 125T416 232V496H522V0H430L421 74H416Q396 38 354 13T256 -12ZM612 534L394 638V737L612 624V534Z" />
<glyph unicode="&#xfa;" glyph-name="uacute" d="M256 -12Q166 -12 120 43T73 205V496H179V218Q179 157 205 123T287 88Q342 88 379 125T416 232V496H522V0H430L421 74H416Q396 38 354 13T256 -12ZM238 534V624L456 737V638L238 534Z" />
<glyph unicode="&#xfb;" glyph-name="ucircumflex" d="M256 -12Q166 -12 120 43T73 205V496H179V218Q179 157 205 123T287 88Q342 88 379 125T416 232V496H522V0H430L421 74H416Q396 38 354 13T256 -12ZM412 547V632L553 712L694 632V547L556 627H550L412 547Z" />
<glyph unicode="&#xfc;" glyph-name="udieresis" d="M256 -12Q166 -12 120 43T73 205V496H179V218Q179 157 205 123T287 88Q342 88 379 125T416 232V496H522V0H430L421 74H416Q396 38 354 13T256 -12ZM649 564Q622 564 604 583T586 627Q586 653 604 671T649 690Q675
690 692 672T710 627Q710 602 693 583T649 564ZM458 564Q432 564 414 583T396 627Q396 653 414 671T458 690Q484 690 502 672T520 627Q520 602 502 583T458 564Z" />
<glyph unicode="&#xfd;" glyph-name="yacute" d="M143 -220L261 41H232L39 496H154L302 133L459 496H570L255 -220H143ZM245 534V624L463 737V638L245 534Z" />
<glyph unicode="&#xfe;" glyph-name="thorn" d="M69 -220V720H175V420Q195 457 235 482T332 508Q390 508 438 479T514 392T543 248Q543 163 514 105T434 18T322 -12Q267 -12 230 10T175 60V-220H69ZM304 89Q360 89 397 129T435 249Q435 329 398 368T304 407Q247
407 210 368T172 248Q172 169 209 129T304 89Z" />
<glyph unicode="&#xff;" glyph-name="ydieresis" d="M143 -220L261 41H232L39 496H154L302 133L459 496H570L255 -220H143ZM400 564Q373 564 355 583T337 627Q337 653 355 671T400 690Q426 690 443 672T461 627Q461 602 444 583T400 564ZM209 564Q183 564 165
583T147 627Q147 653 165 671T209 690Q235 690 253 672T271 627Q271 602 253 583T209 564Z" />
<glyph unicode="&#x2013;" glyph-name="endash" d="M88 305V395H512V305H88Z" />
<glyph unicode="&#x2014;" glyph-name="emdash" d="M0 305V395H600V305H0Z" />
<glyph unicode="&#x2018;" glyph-name="quoteleft" d="M182 405L291 700H386L323 405H182Z" />
<glyph unicode="&#x2019;" glyph-name="quoteright" d="M214 405L277 700H418L309 405H214Z" />
<glyph unicode="&#x201a;" glyph-name="quotesinglbase" d="M214 -153L277 142H418L309 -153H214Z" />
<glyph unicode="&#x201c;" glyph-name="quotedblleft" d="M326 405L435 700H530L467 405H326ZM304 405L413 700H508L445 405H304Z" />
<glyph unicode="&#x201d;" glyph-name="quotedblright" d="M79 405L142 700H283L174 405H79ZM313 405L376 700H517L408 405H313Z" />
<glyph unicode="&#x201e;" glyph-name="quotedblbase" d="M79 -153L142 142H283L174 -153H79ZM313 -153L376 142H517L408 -153H313Z" />
<glyph unicode="&#x2022;" glyph-name="bullet" d="M300 213Q262 213 231 231T182 281T163 350Q163 388 181 419T231 468T300 487Q338 487 369 469T418 419T437 350Q437 312 419 281T369 232T300 213Z" />
<glyph unicode="&#x2039;" glyph-name="guilsinglleft" d="M311 94L190 295L311 496H420L305 298V292L420 94H311Z" />
<glyph unicode="&#x203a;" glyph-name="guilsinglright" d="M180 94L295 292V298L180 496H289L410 295L289 94H180Z" />
</font>
</defs>
</svg>
