<?xml version="1.0" standalone="no"?>
<!DOCTYPE svg PUBLIC "-//W3C//DTD SVG 1.1//EN" "http://www.w3.org/Graphics/SVG/1.1/DTD/svg11.dtd">
<svg xmlns="http://www.w3.org/2000/svg">
<defs >
<font id="MajorMonoDisplay" horiz-adv-x="759" ><font-face
    font-family="Major Mono Display"
    units-per-em="1000"
    panose-1="0 0 5 9 0 0 0 0 0 0"
    ascent="900"
    descent="-100"
    alphabetic="0" />
<glyph unicode=" " glyph-name="space" horiz-adv-x="740" />
<glyph unicode="!" glyph-name="exclam" horiz-adv-x="740" d="M450 696L413 240H327L290 696H450ZM279 113T305 139T370 166Q408 166 434 140T461 76Q461 39 435 12T370 -15Q333 -15 306 12T279 76Q279 113 305 139Z" />
<glyph unicode="&quot;" glyph-name="quotedbl" horiz-adv-x="740" d="M202 696H350L296 405H202V696ZM390 405V696H538L484 405H390Z" />
<glyph unicode="#" glyph-name="numbersign" horiz-adv-x="740" d="M411 0L441 215H262L233 0H196L226 215H89V252H231L257 444H118V481H262L292 696H329L299 481H478L507 696H544L514 481H651V444H509L483 252H622V215H478L448 0H411ZM473 444H294L268 252H446L473 444Z" />
<glyph unicode="$" glyph-name="dollar" horiz-adv-x="740" d="M242 363T186 402T129 518Q129 603 191 655T357 712V816H394V712Q460 707 513 677T598 596T629 479H592Q592 535 566 578T495 646T394 676V368Q476 351 521 336T597 284T629 183Q629 121 597 78T511
12T394 -14V-108H357V-14Q280 -10 222 22T134 108T103 233H140Q139 141 197 84T357 21V338Q242 363 186 402ZM277 673T222 634T166 520Q166 476 189 449T253 406T357 376V677Q277 673 222 634ZM394 21Q480 25 536 67T592 182Q592 233 568 261T505 303T394 331V21Z"
/>
<glyph unicode="%" glyph-name="percent" horiz-adv-x="740" d="M187 420T155 439T104 490T85 561Q85 599 104 631T155 682T225 701Q263 701 295 682T347 631T366 561Q366 523 347 491T296 439T225 420Q187 420 155 439ZM182 664T152 634T122 561Q122 518 152
488T225 457Q269 457 299 487T329 561Q329 604 299 634T225 664Q182 664 152 634ZM615 562L151 98L125 124L589 588L615 562ZM553 267T585 248T636 197T655 126Q655 88 636 56T585 4T515 -15Q477 -15 445 4T393 55T374 126Q374 164 393 196T444 248T515 267Q553
267 585 248ZM558 22T588 52T618 126Q618 169 588 199T515 230Q472 230 442 200T411 126Q411 83 441 53T515 22Q558 22 588 52Z" />
<glyph unicode="&amp;" glyph-name="ampersand" horiz-adv-x="740" d="M528 484T514 449T472 387L446 413Q468 435 479 463T491 522Q491 564 471 599T415 655T337 676Q296 676 261 655T204 599T183 522Q183 491 194 463T228 413L515 126Q542 172 542 229V265H645V229H578Q578
157 542 99L644 -2H591L520 69Q486 29 439 7T338 -15Q273 -15 218 17T130 105T97 226Q97 279 119 327T183 410Q147 458 147 522Q147 574 172 617T242 686T338 712Q390 712 433 687T502 618T528 522Q528 484 514 449ZM172 353T153 312T133 226Q133 170 160 123T235
49T338 21Q384 21 425 41T494 95L207 382Q172 353 153 312Z" />
<glyph unicode="&apos;" glyph-name="quotesingle" horiz-adv-x="740" d="M444 696L390 405H297V696H444Z" />
<glyph unicode="(" glyph-name="parenleft" horiz-adv-x="740" d="M271 455T315 566T442 765L469 740Q391 658 350 553T308 335Q308 222 349 117T469 -70L442 -95Q359 -8 315 103T271 335Q271 455 315 566Z" />
<glyph unicode=")" glyph-name="parenright" horiz-adv-x="740" d="M271 -77Q349 5 390 110T432 328Q432 441 391 546T271 733L298 758Q381 670 425 559T469 328Q469 207 425 96T298 -102L271 -77Z" />
<glyph unicode="*" glyph-name="asterisk" horiz-adv-x="740" d="M500 441L389 505V377H352V505L241 441L223 473L334 537L223 601L241 633L352 569V696H389V569L500 633L518 601L407 537L518 473L500 441Z" />
<glyph unicode="+" glyph-name="plus" horiz-adv-x="740" d="M177 362H352V536H388V362H563V325H388V151H352V325H177V362Z" />
<glyph unicode="," glyph-name="comma" horiz-adv-x="740" d="M279 114T305 140T370 167Q408 167 434 141T461 77Q461 54 448 31L357 -126H314L380 -13Q377 -14 370 -14Q333 -14 306 13T279 77Q279 114 305 140Z" />
<glyph unicode="-" glyph-name="hyphen" horiz-adv-x="740" d="M198 327V364H542V327H198Z" />
<glyph unicode="." glyph-name="period" horiz-adv-x="740" d="M279 113T305 139T370 166Q408 166 434 140T461 76Q461 39 435 12T370 -15Q333 -15 306 12T279 76Q279 113 305 139Z" />
<glyph unicode="/" glyph-name="slash" horiz-adv-x="740" d="M107 0L588 740H633L152 0H107Z" />
<glyph unicode="0" glyph-name="zero" horiz-adv-x="740" d="M605 220Q605 156 574 102T488 17T370 -15Q306 -15 252 16T167 102T135 220V475Q135 539 166 593T252 678T370 710Q434 710 488 679T573 593T605 475V220ZM171 220Q171 186 184 150L537 581Q510 623
466 648T370 673Q316 673 271 647T198 575T171 475V220ZM569 475Q569 509 556 545L203 114Q230 71 274 46T370 21Q424 21 469 48T542 120T569 220V475Z" />
<glyph unicode="1" glyph-name="one" horiz-adv-x="740" d="M352 37V569Q319 518 266 488T149 458V494Q204 494 250 521T324 595T352 697H388V37H598V0H142V37H352Z" />
<glyph unicode="2" glyph-name="two" horiz-adv-x="740" d="M586 37V0H154V37L304 202L440 350L452 363Q492 405 514 439T536 514Q536 559 514 596T452 654T364 675Q318 675 279 652T216 590T193 503H156Q156 560 184 607T259 683T364 711Q423 711 470 686T545
615T573 514Q573 464 548 425T479 338L467 325L204 37H586Z" />
<glyph unicode="3" glyph-name="three" horiz-adv-x="740" d="M309 361L525 657H169V694H571V657L412 440Q465 430 507 398T574 318T599 215Q599 153 568 100T485 16T370 -15Q308 -15 256 16T172 100T141 215H177Q177 163 203 119T273 48T370 22Q422 22 466 48T537
118T563 215Q563 264 540 306T476 375T387 406L339 340L309 361Z" />
<glyph unicode="4" glyph-name="four" horiz-adv-x="740" d="M459 697H496V217H617V181H496V0H459V181H123V218L459 697ZM459 217V633L167 217H459Z" />
<glyph unicode="5" glyph-name="five" horiz-adv-x="740" d="M161 695H572V658H198V382Q231 417 275 436T369 455Q433 455 487 425T572 342T604 220Q604 152 573 99T487 15T369 -15Q311 -15 261 12T177 85T136 188H173Q181 141 209 104T278 44T369 22Q423 22 468
47T540 117T567 220Q567 278 541 323T469 394T369 419Q317 419 272 393T200 323H161V695Z" />
<glyph unicode="6" glyph-name="six" horiz-adv-x="740" d="M481 694L288 428Q328 444 370 444Q432 444 485 413T568 330T599 215Q599 153 568 100T485 16T370 -15Q308 -15 256 16T172 100T141 215Q141 290 185 350L436 694H481ZM422 22T466 48T537 118T563 215Q563
267 537 311T467 381T370 407Q318 407 274 381T203 311T177 215Q177 163 203 119T273 48T370 22Q422 22 466 48Z" />
<glyph unicode="7" glyph-name="seven" horiz-adv-x="740" d="M236 0L559 660H140V697H600V660L277 0H236Z" />
<glyph unicode="8" glyph-name="eight" horiz-adv-x="740" d="M312 -15T263 14T184 92T155 200Q155 266 192 320T289 398Q250 420 226 459T202 545Q202 591 224 629T286 690T370 713Q416 713 454 691T515 630T538 545Q538 498 515 459T451 398Q510 374 547 320T585
200Q585 142 556 93T478 14T370 -15Q312 -15 263 14ZM239 510T256 480T304 432T370 414Q405 414 435 431T483 479T501 545Q501 580 484 610T436 658T370 676Q335 676 305 659T257 611T239 545Q239 510 256 480ZM418 22T459 46T524 111T548 200Q548 248 524 289T459
354T370 378Q322 378 281 354T216 289T192 200Q192 152 216 111T281 46T370 22Q418 22 459 46Z" />
<glyph unicode="9" glyph-name="nine" horiz-adv-x="740" d="M259 0L452 266Q415 251 370 251Q308 251 256 282T172 365T141 480Q141 542 172 595T255 678T370 709Q432 709 484 679T568 595T599 480Q599 405 555 345V344L304 0H259ZM177 428T203 384T273 314T370
288Q422 288 466 314T537 384T563 480Q563 532 537 576T467 647T370 673Q318 673 274 647T203 577T177 480Q177 428 203 384Z" />
<glyph unicode=":" glyph-name="colon" horiz-adv-x="740" d="M333 327T306 354T279 418Q279 456 306 482T370 509Q408 509 434 483T461 418Q461 381 435 354T370 327Q333 327 306 354ZM332 -15T306 11T279 76Q279 113 305 139T370 166Q408 166 434 140T461 76Q461
38 435 12T370 -15Q332 -15 306 11Z" />
<glyph unicode=";" glyph-name="semicolon" horiz-adv-x="740" d="M333 328T306 355T279 419Q279 457 306 483T370 510Q408 510 434 484T461 419Q461 382 435 355T370 328Q333 328 306 355ZM314 -126L380 -13Q377 -14 370 -14Q332 -14 306 12T279 77Q279 114 305
140T370 167Q408 167 434 141T461 77Q461 54 448 31L357 -126H314Z" />
<glyph unicode="&lt;" glyph-name="less" horiz-adv-x="740" d="M450 611L476 585L237 345L476 106L450 80L185 345L450 611Z" />
<glyph unicode="=" glyph-name="equal" horiz-adv-x="740" d="M574 438V401H166V438H574ZM166 244V281H574V244H166Z" />
<glyph unicode="&gt;" glyph-name="greater" horiz-adv-x="740" d="M474 345L235 585L261 611L526 345L261 80L235 106L474 345Z" />
<glyph unicode="?" glyph-name="question" horiz-adv-x="740" d="M631 366T597 305T505 207T377 165Q409 159 430 134T451 75Q451 38 425 12T360 -15Q322 -15 296 11T269 75Q269 113 295 139T360 166V348Q397 348 423 374T450 437Q450 474 424 500T360 527Q323
527 297 501T270 437H89Q89 511 125 573T224 671T360 708Q434 708 496 672T594 573T631 437Q631 366 597 305ZM414 98T399 113T360 129Q338 129 322 114T306 75Q306 53 322 38T360 22Q382 22 398 37T414 75Q414 98 399 113Z" />
<glyph unicode="@" glyph-name="at" horiz-adv-x="740" d="M605 214Q580 182 543 163T463 144Q415 144 374 168T309 233T285 323Q285 371 309 412T374 477T463 501Q506 501 543 483T605 431V434Q605 498 574 551T488 637T370 669Q306 669 252 637T167 552T135
434V212Q135 148 166 94T252 8T370 -24Q417 -24 460 -6T536 45L562 19Q524 -19 474 -40T370 -61Q296 -61 234 -24T135 75T98 212V434Q98 508 134 570T233 669T370 706Q444 706 506 670T605 571T642 434V153H605V214ZM605 361T586 394T535 446T463 465Q425 465 392
446T340 394T321 323Q321 284 340 252T392 200T463 181Q502 181 534 200T586 251T605 323Q605 361 586 394Z" />
<glyph unicode="A" glyph-name="A" horiz-adv-x="740" d="M698 0H42L370 711L698 0ZM100 37H640L370 623L100 37Z" />
<glyph unicode="B" glyph-name="B" horiz-adv-x="740" d="M419 696Q485 696 524 676Q571 652 596 610T622 516Q622 467 596 426T525 360Q579 341 616 294T653 188Q653 136 627 93T556 24Q534 12 507 6T435 0H127V696H419Z" />
<glyph unicode="C" glyph-name="C" horiz-adv-x="740" d="M657 263Q658 132 582 59T373 -15Q294 -15 228 21T122 123T83 275V421Q83 506 120 572T223 674T370 711Q503 711 578 639T655 434H475Q474 485 448 513T370 541Q324 541 294 512T264 430V267Q264 214 295
185T373 155Q478 155 478 263H657Z" />
<glyph unicode="D" glyph-name="D" horiz-adv-x="740" d="M120 0V696H379Q455 696 519 658T622 556T660 415V281Q660 205 622 141T520 38T379 0H120Z" />
<glyph unicode="E" glyph-name="E" horiz-adv-x="740" d="M120 696H627V520H302V432H572V265H302V176H627V0H120V696Z" />
<glyph unicode="F" glyph-name="F" horiz-adv-x="740" d="M646 696V659H167V436H551V260H167V0H130V696H646Z" />
<glyph unicode="G" glyph-name="G" horiz-adv-x="740" d="M298 674T241 641T149 550T115 424V292Q115 221 135 175Q163 110 220 69T348 23V348H653V282Q653 218 634 168Q603 85 530 35T365 -15Q278 -15 207 32T102 159Q78 215 78 292V424Q78 502 116 568T221 672T365
711Q430 711 484 690T576 627Q607 593 626 551T646 466H610Q609 503 592 539T547 604Q480 674 365 674Q298 674 241 641ZM616 312H384V23Q456 28 513 68T598 176Q616 223 616 282V312Z" />
<glyph unicode="H" glyph-name="H" horiz-adv-x="740" d="M102 0V696H139V499Q242 499 334 460T495 350T601 188V696H638V0H601Q601 125 539 231T371 400T139 462V0H102Z" />
<glyph unicode="I" glyph-name="I" horiz-adv-x="740" d="M145 520V696H595V520H388V176H595V0H145V176H352V520H145Z" />
<glyph unicode="J" glyph-name="J" horiz-adv-x="740" d="M460 520H264V696H642V283Q642 190 605 123T504 20T360 -15Q284 -15 220 23T117 125T79 266H261Q261 220 287 189T359 158Q407 158 433 188T460 278V520Z" />
<glyph unicode="K" glyph-name="K" horiz-adv-x="740" d="M380 406L670 0H110V696H670L380 406ZM354 380L147 173V37H599L354 380Z" />
<glyph unicode="L" glyph-name="L" horiz-adv-x="740" d="M674 177V0H144V696H181V177H674Z" />
<glyph unicode="M" glyph-name="M" horiz-adv-x="740" d="M89 697H129L372 267L614 697H651V1H89V697ZM126 37H614V622L389 226H354L126 628V37Z" />
<glyph unicode="N" glyph-name="N" horiz-adv-x="740" d="M99 1V697H138L624 224V697H661V1H99Z" />
<glyph unicode="O" glyph-name="O" horiz-adv-x="740" d="M80 503T119 570T224 676T370 715Q449 715 515 676T621 570T660 425V271Q660 193 621 126T516 20T370 -19Q291 -19 225 20T119 126T80 271V425Q80 503 119 570ZM262 223T292 189T370 155Q417 155 447 189T477
271V426Q477 475 447 508T370 541Q322 541 292 508T262 426V271Q262 223 292 189Z" />
<glyph unicode="P" glyph-name="P" horiz-adv-x="740" d="M139 0V696H430Q503 696 556 669Q617 638 653 581T689 454Q689 385 654 327T557 238Q505 211 430 211H321V0H139Z" />
<glyph unicode="Q" glyph-name="Q" horiz-adv-x="740" d="M447 715T513 676T619 571T658 425V272Q658 212 633 154L730 59L607 -69L514 22Q445 -18 368 -18Q289 -18 223 21T117 126T78 272V425Q78 504 117 570T222 676T368 715Q447 715 513 676ZM260 272Q260 228
291 196T367 164Q411 164 442 196T474 272V425Q474 469 443 500T367 531Q323 531 292 500T260 425V272Z" />
<glyph unicode="R" glyph-name="R" horiz-adv-x="740" d="M658 0H123V696H394Q481 696 536 665Q590 635 620 583T650 468Q650 390 602 329T481 247L658 0ZM186 659L458 279Q525 293 569 346T613 468Q613 523 586 568T510 637Q466 659 395 659H186ZM160 635V276H417L160
635ZM160 37H588L442 240L411 239H160V37Z" />
<glyph unicode="S" glyph-name="S" horiz-adv-x="740" d="M230 -18T152 50T74 256H237Q236 199 271 169T369 139Q421 139 451 156T481 208Q481 237 451 250T390 268T353 275Q276 290 220 311T126 377T88 493Q88 565 126 615T227 691T366 716Q457 716 523 682T628
579Q647 546 651 516T655 456H492Q492 510 463 535T373 561Q324 561 297 544T270 498Q270 466 306 451T397 424Q487 406 537 390T625 331T662 213Q662 141 622 89T517 10T375 -18Q230 -18 152 50Z" />
<glyph unicode="T" glyph-name="T" horiz-adv-x="740" d="M352 0V520H89V696H651V520H388V0H352Z" />
<glyph unicode="U" glyph-name="U" horiz-adv-x="740" d="M294 -15T230 23T127 125T89 266V696H651V266Q651 190 613 126T511 23T370 -15Q294 -15 230 23Z" />
<glyph unicode="V" glyph-name="V" horiz-adv-x="740" d="M42 697H698L370 -14L42 697ZM370 74L641 660H100L370 74Z" />
<glyph unicode="W" glyph-name="W" horiz-adv-x="740" d="M351 458L287 696H700L513 0H474L370 387L266 0H227L40 696H78L246 69L351 458ZM652 659H335L389 458L494 69L652 659Z" />
<glyph unicode="X" glyph-name="X" horiz-adv-x="740" d="M75 0L348 348L75 696H666L393 348L666 0H75ZM370 378L591 659H150L370 378ZM591 37L370 318L150 37H591Z" />
<glyph unicode="Y" glyph-name="Y" horiz-adv-x="740" d="M73 696H667L389 285V0H352V285L73 696Z" />
<glyph unicode="Z" glyph-name="Z" horiz-adv-x="740" d="M581 659H123V696H629V0H112V37L581 659ZM592 37V612L158 37H592Z" />
<glyph unicode="[" glyph-name="bracketleft" horiz-adv-x="740" d="M270 773H471V737H306V-56H471V-93H270V773Z" />
<glyph unicode="\" glyph-name="backslash" horiz-adv-x="740" d="M107 740H152L633 0H588L107 740Z" />
<glyph unicode="]" glyph-name="bracketright" horiz-adv-x="740" d="M270 737V773H471V-93H270V-56H435V737H270Z" />
<glyph unicode="^" glyph-name="asciicircum" horiz-adv-x="740" d="M222 770L370 918L519 770L492 744L370 866L248 744L222 770Z" />
<glyph unicode="_" glyph-name="underscore" horiz-adv-x="740" d="M102 -2H638V-39H102V-2Z" />
<glyph unicode="`" glyph-name="grave" horiz-adv-x="740" d="M274 867L447 741L466 766L309 912L274 867Z" />
<glyph unicode="a" glyph-name="a" horiz-adv-x="740" d="M351 696H390L676 0H636L542 230H199L104 0H65L351 696ZM214 266H527L370 648L214 266Z" />
<glyph unicode="b" glyph-name="b" horiz-adv-x="740" d="M557 652T582 610T608 516Q608 467 583 426T512 360Q565 342 600 294T635 188Q635 136 609 92T540 24Q518 12 491 6T419 0H127V696H405Q471 696 510 676Q557 652 582 610ZM530 407T551 441T572 516Q572
562 548 596T487 647Q459 659 393 659H163V373H411Q463 373 494 389Q530 407 551 441ZM555 71T577 107T599 187Q599 232 576 268T514 323Q484 337 433 337H163V36H420Q458 36 480 40T518 52Q555 71 577 107Z" />
<glyph unicode="c" glyph-name="c" horiz-adv-x="740" d="M131 200T164 144T254 55T377 22Q445 22 500 49T586 124T619 232H655Q655 163 619 107T519 18T377 -15Q301 -15 236 23T133 125T95 266V430Q95 506 132 570T234 673T375 711Q452 711 515 679T616 590T653
464H617Q616 524 584 572T498 647T375 674Q309 674 253 641T164 552T131 430V266Q131 200 164 144Z" />
<glyph unicode="d" glyph-name="d" horiz-adv-x="740" d="M439 696T503 658T606 556T644 415V281Q644 205 606 141T504 38T363 0H106V696H363Q439 696 503 658ZM607 415Q607 481 574 537T485 626T362 659H143V37H362Q428 37 484 70T574 159T607 281V415Z" />
<glyph unicode="e" glyph-name="e" horiz-adv-x="740" d="M130 696H620V659H167V377H561V340H167V37H620V0H130V696Z" />
<glyph unicode="f" glyph-name="f" horiz-adv-x="740" d="M139 696H658V659H176V367H566V330H176V0H139V696Z" />
<glyph unicode="g" glyph-name="g" horiz-adv-x="740" d="M615 143Q588 74 517 30T365 -15Q287 -15 221 24T117 131T78 282V422Q78 502 116 568T220 672T365 711Q430 711 484 690T576 627Q607 593 626 551T646 466H610Q609 503 592 539T547 604Q480 674 365 674Q296
674 239 641T148 550T115 422V282Q115 209 148 150T239 56T365 22Q434 22 491 55T582 146T615 272V307H365V344H652V0H615V143Z" />
<glyph unicode="h" glyph-name="h" horiz-adv-x="740" d="M102 0V696H139V367H601V696H638V0H601V330H139V0H102Z" />
<glyph unicode="i" glyph-name="i" horiz-adv-x="740" d="M596 696V659H388V37H596V0H145V37H352V659H145V696H596Z" />
<glyph unicode="j" glyph-name="j" horiz-adv-x="740" d="M287 -15T226 17T126 107T80 233H117Q124 174 158 126T244 50T358 22Q425 22 481 55T570 146T603 276V659H291V696H639V276Q639 194 602 128T500 23T358 -15Q287 -15 226 17Z" />
<glyph unicode="k" glyph-name="k" horiz-adv-x="740" d="M147 696V225L619 696H671L380 406L670 0H626L354 380L147 173V0H110V696H147Z" />
<glyph unicode="l" glyph-name="l" horiz-adv-x="740" d="M155 0V696H192V37H677V0H155Z" />
<glyph unicode="m" glyph-name="m" horiz-adv-x="740" d="M126 0H89V696H129L372 267L614 696H651V0H614V622L389 225H354L126 627V0Z" />
<glyph unicode="n" glyph-name="n" horiz-adv-x="740" d="M98 0V696H137L623 224V696H660V0H623V172L135 648V0H98Z" />
<glyph unicode="o" glyph-name="o" horiz-adv-x="740" d="M448 711T514 673T618 568T657 424V272Q657 194 619 128T514 24T370 -15Q292 -15 226 23T122 128T83 272V424Q83 502 121 568T226 672T370 711Q448 711 514 673ZM120 204T153 147T244 56T370 22Q438 22
495 55T586 146T620 272V424Q620 492 587 549T496 640T370 674Q302 674 245 641T154 550T120 424V272Q120 204 153 147Z" />
<glyph unicode="p" glyph-name="p" horiz-adv-x="740" d="M176 0H139V696H419Q489 696 548 666T643 581T678 454Q678 385 643 327T546 238Q493 211 419 211H176V0ZM176 248H419Q483 248 524 268Q577 293 609 343T641 454Q641 514 609 564T523 639Q482 659 419
659H176V248Z" />
<glyph unicode="q" glyph-name="q" horiz-adv-x="740" d="M659 -9L632 -33L554 56Q516 22 469 4T368 -14Q290 -14 224 24T120 129T81 273V425Q81 503 119 569T224 673T368 712Q446 712 512 674T616 569T655 425V273Q655 219 636 170T581 81L659 -9ZM618 425Q618
493 585 550T494 641T368 675Q300 675 243 642T151 551T117 425V273Q117 205 151 148T242 57T368 23Q413 23 454 38T530 83L425 203L453 227L556 109Q585 143 601 185T618 273V425Z" />
<glyph unicode="r" glyph-name="r" horiz-adv-x="740" d="M581 645T615 590T650 468Q650 390 603 329T481 247L658 0H614L443 240L411 239H160V0H123V696H388Q432 696 463 691T521 673Q581 645 615 590ZM421 276Q473 276 517 302T587 372T613 468Q613 526 583
573T498 643Q459 659 388 659H160V276H421Z" />
<glyph unicode="s" glyph-name="s" horiz-adv-x="740" d="M300 350T247 370T163 426T132 518Q132 576 162 620T248 688T377 712Q447 712 505 683T598 600T632 479H595Q595 538 566 583T487 652T376 677Q322 677 275 660T199 608T169 520Q169 472 197 444T270 400T396
368Q478 351 523 336T600 284T632 183Q632 118 598 74T506 7T382 -15Q299 -15 236 16T140 103T106 233H143Q143 169 171 121T254 47T382 20Q474 20 534 64T595 184Q595 236 569 264T504 304T385 333Q300 350 247 370Z" />
<glyph unicode="t" glyph-name="t" horiz-adv-x="740" d="M651 696V659H388V0H352V659H89V696H651Z" />
<glyph unicode="u" glyph-name="u" horiz-adv-x="740" d="M89 696H126V266Q126 200 159 144T248 55T370 22Q436 22 492 55T581 144T614 266V696H651V266Q651 190 613 126T511 23T370 -15Q294 -15 230 23T127 125T89 266V696Z" />
<glyph unicode="v" glyph-name="v" horiz-adv-x="740" d="M103 696L369 49L635 696H674L388 0H349L63 696H103Z" />
<glyph unicode="w" glyph-name="w" horiz-adv-x="740" d="M700 696L513 0H474L370 387L266 0H227L40 696H78L246 69L351 458L287 696H325L389 458L494 69L662 696H700Z" />
<glyph unicode="x" glyph-name="x" horiz-adv-x="740" d="M346 348L79 696H127L370 379L614 696H661L394 348L661 0H614L370 317L127 0H79L346 348Z" />
<glyph unicode="y" glyph-name="y" horiz-adv-x="740" d="M124 696L371 324L616 696H660L389 285V0H352V285L80 696H124Z" />
<glyph unicode="z" glyph-name="z" horiz-adv-x="740" d="M629 696L628 659L158 37H629V0H112V37L581 659H123V696H629Z" />
<glyph unicode="{" glyph-name="braceleft" horiz-adv-x="740" d="M352 726Q352 766 372 800T426 855T501 875V839Q455 839 422 806T388 726V566Q388 525 367 490T311 436Q346 417 367 382T388 305V145Q388 99 421 66T501 33V-4Q460 -4 426 16T372 70T352 145V305Q352
351 319 384T239 417V454Q285 454 318 487T352 566V726Z" />
<glyph unicode="|" glyph-name="bar" horiz-adv-x="740" d="M388 773V-93H352V773H388Z" />
<glyph unicode="}" glyph-name="braceright" horiz-adv-x="740" d="M286 33T319 66T352 145V305Q352 347 373 382T429 436Q394 455 373 490T352 566V726Q352 773 319 806T239 839V875Q280 875 314 855T368 801T388 726V566Q388 520 421 487T501 454V417Q454 417
421 384T388 305V145Q388 105 368 71T314 16T239 -4V33Q286 33 319 66Z" />
<glyph unicode="~" glyph-name="asciitilde" horiz-adv-x="740" d="M179 385T262 385Q318 385 376 348Q430 315 479 315Q517 315 548 333T602 376L630 351Q604 323 566 301T479 278Q420 278 357 317Q308 348 262 348Q193 348 138 286L110 310Q179 385 262 385Z" />
<glyph unicode="&#xa0;" glyph-name="uni00A0" horiz-adv-x="740" />
<glyph unicode="&#xa1;" glyph-name="exclamdown" horiz-adv-x="740" d="M332 530T306 556T279 620Q279 658 306 684T370 711Q408 711 434 685T461 620Q461 583 435 557T370 530Q332 530 306 556ZM327 456H413L450 0H290L327 456Z" />
<glyph unicode="&#xa2;" glyph-name="cent" horiz-adv-x="740" d="M585 195T527 154T397 107V12H360V107Q296 112 243 147T158 238T127 361Q127 427 158 483T242 575T360 615V710H397V615Q467 610 524 570T611 465L577 450Q553 505 505 539T397 578V144Q457 149
506 184T579 276L613 262Q585 195 527 154ZM164 305T190 257T261 179T360 144V578Q306 573 261 543T190 465T164 361Q164 305 190 257Z" />
<glyph unicode="&#xa3;" glyph-name="sterling" horiz-adv-x="740" d="M495 36Q529 36 558 53T604 99T621 162H658Q658 118 636 81T577 22T495 0H82V36Q130 36 164 70T198 152V342H82V379H198V496Q198 557 228 608T310 690T422 721Q483 721 534 691T616 609T647
496H610Q610 547 585 590T516 658T422 684Q371 684 328 659T260 590T235 496V379H461V342H235V152Q235 118 221 88T182 36H495Z" />
<glyph unicode="&#xa4;" glyph-name="currency" horiz-adv-x="740" d="M542 540L568 514L508 454Q547 406 547 342Q547 312 537 284T508 231L568 170L542 144L481 205Q434 165 370 165Q306 165 259 205L198 144L172 170L232 231Q213 255 203 283T193 342Q193 406
232 454L172 514L198 540L259 480Q307 519 370 519Q433 519 482 480L542 540ZM251 421T241 395T230 342Q230 315 240 290T271 243Q291 223 317 213T370 202Q397 202 423 212T469 243Q489 263 499 289T510 342Q510 370 500 395T469 441Q449 461 424 471T370 482Q342
482 317 472T271 441Q251 421 241 395Z" />
<glyph unicode="&#xa5;" glyph-name="yen" horiz-adv-x="740" d="M389 177H588V140H389V0H352V140H152V177H352V282H152V318H330L80 696H125L371 324L616 696H660L411 318H588V282H389V177Z" />
<glyph unicode="&#xa6;" glyph-name="brokenbar" horiz-adv-x="740" d="M388 773V425H352V773H388ZM352 -93V255H388V-93H352Z" />
<glyph unicode="&#xa7;" glyph-name="section" horiz-adv-x="740" d="M411 -61T450 -32T490 56Q490 120 436 143L274 208Q231 226 208 259T185 329Q185 372 207 404T268 456Q238 475 219 506T200 570Q201 635 244 673T362 711Q407 711 444 689T504 628T526 546H490Q490
581 473 610T427 657T362 675Q304 675 271 647T237 570Q237 542 256 515T301 477Q327 466 371 452Q401 442 416 436Q461 418 486 403T528 361T544 292Q544 250 522 216T464 170Q494 153 510 121T526 56Q526 -18 476 -57T353 -97Q307 -97 267 -75T202 -14T178 71H215Q215
35 233 5T283 -43T350 -61Q411 -61 450 -32ZM508 326T494 347T458 379T398 405L309 435Q270 425 246 398T221 331Q221 276 286 243Q312 230 382 203L425 187Q457 196 482 223T508 292Q508 326 494 347Z" />
<glyph unicode="&#xa8;" glyph-name="dieresis" horiz-adv-x="740" d="M293 931T317 907T341 849Q341 815 317 792T259 768Q225 768 202 791T178 849Q178 883 201 907T259 931Q293 931 317 907ZM447 768T424 791T400 849Q400 883 423 907T481 931Q515 931 539
907T563 849Q563 815 539 792T481 768Q447 768 424 791ZM279 802T292 816T306 849Q306 869 293 883T259 897Q239 897 226 883T212 849Q212 830 226 816T259 802Q279 802 292 816ZM461 897T448 883T434 849Q434 830 448 816T481 802Q501 802 514 816T528 849Q528
869 515 883T481 897Q461 897 448 883Z" />
<glyph unicode="&#xa9;" glyph-name="copyright" horiz-adv-x="740" d="M110 422T145 482T240 577T370 612Q440 612 500 577T595 482T630 352Q630 282 595 222T500 127T370 92Q300 92 240 127T145 222T110 352Q110 422 145 482ZM147 292T177 241T258 159T370 129Q430
129 481 159T563 240T593 352Q593 412 563 463T482 545T370 575Q310 575 259 545T177 464T147 352Q147 292 177 241ZM466 394Q454 421 429 437T375 454Q333 454 304 424T274 352Q274 310 303 280T375 250Q405 250 430 267T467 312L501 298Q485 260 451 237T375
213Q338 213 306 232T256 283T237 352Q237 389 255 421T306 471T375 490Q416 490 450 468T500 408L466 394Z" />
<glyph unicode="&#xaa;" glyph-name="ordfeminine" horiz-adv-x="740" d="M325 353T284 377T219 442T195 532Q195 580 219 621T284 686T373 710Q416 710 453 692T515 640V697H552V362H515V423Q490 391 453 372T373 353Q325 353 284 377ZM231 493T250 461T302 409T373
390Q412 390 444 409T496 460T515 532Q515 570 496 603T445 655T373 674Q335 674 302 655T250 603T231 532Q231 493 250 461Z" />
<glyph unicode="&#xab;" glyph-name="guillemotleft" horiz-adv-x="740" d="M161 340L338 569L367 547L207 340L367 134L338 111L161 340ZM515 569L544 547L385 340L544 134L515 111L338 340L515 569Z" />
<glyph unicode="&#xac;" glyph-name="logicalnot" horiz-adv-x="740" d="M542 394V267H505V357H198V394H542Z" />
<glyph unicode="&#xad;" glyph-name="uni00AD" horiz-adv-x="740" d="M542 364V327H198V364H542Z" />
<glyph unicode="&#xae;" glyph-name="registered" horiz-adv-x="740" d="M110 422T145 482T240 577T370 612Q440 612 500 577T595 482T630 352Q630 282 595 222T500 127T370 92Q300 92 240 127T145 222T110 352Q110 422 145 482ZM147 292T177 241T258 159T370
129Q430 129 481 159T563 240T593 352Q593 412 563 463T482 545T370 575Q310 575 259 545T177 464T147 352Q147 292 177 241ZM390 294H306V217H269V487H390Q430 487 458 459T486 391Q486 362 471 339T431 303L493 217H447L392 294H390ZM415 331T432 348T450 391Q450
416 433 433T390 451H306V331H390Q415 331 432 348Z" />
<glyph unicode="&#xaf;" glyph-name="overscore" horiz-adv-x="740" d="M222 766V803H518V766H222Z" />
<glyph unicode="&#xb0;" glyph-name="degree" horiz-adv-x="740" d="M332 414T299 433T247 485T228 557Q228 596 247 629T299 681T371 700Q410 700 443 681T495 629T514 557Q514 518 495 485T443 433T371 414Q332 414 299 433ZM327 663T296 632T264 557Q264 513
295 482T371 451Q415 451 446 482T477 557Q477 601 446 632T371 663Q327 663 296 632Z" />
<glyph unicode="&#xb1;" glyph-name="plusminus" horiz-adv-x="740" d="M352 366V540H389V366H563V329H389V155H352V329H178V366H352ZM178 37H563V0H178V37Z" />
<glyph unicode="&#xb2;" glyph-name="uni00B2" horiz-adv-x="740" d="M475 366V338H250V365L251 367Q284 403 326 449T394 521L400 527Q420 549 430 565T441 600Q441 632 418 653T360 675Q326 675 303 652T279 594V589H251V594Q251 639 283 671T360 703Q407 703
438 674T469 600Q469 574 457 555T421 508L415 502Q397 484 291 366H475Z" />
<glyph unicode="&#xb3;" glyph-name="uni00B3" horiz-adv-x="740" d="M399 567Q439 557 464 525T489 452Q489 403 454 368T370 332Q321 332 286 367T250 452V459H278V452Q278 414 304 387T369 360Q407 360 434 387T461 452Q461 486 438 511T380 542L355 507L332
524L437 668H264V696H475V671L399 567Z" />
<glyph unicode="&#xb4;" glyph-name="acute" horiz-adv-x="740" d="M431 912L466 867L293 741L274 766L431 912Z" />
<glyph unicode="&#xb5;" glyph-name="uni00B5" horiz-adv-x="740" d="M139 506H176V223Q179 166 206 120T276 49T370 23Q420 23 463 50T534 124T564 231V506H601V-1H564V102Q537 47 486 16T370 -15Q305 -15 254 16T176 102V-171H139V506Z" />
<glyph unicode="&#xb6;" glyph-name="paragraph" horiz-adv-x="740" d="M276 248T225 278T143 359T113 472Q113 533 143 584T224 666T337 696H545V-147H508V659H391V-147H354V248H337Q276 248 225 278Z" />
<glyph unicode="&#xb7;" glyph-name="middot" horiz-adv-x="740" d="M279 380T305 406T370 433Q408 433 434 407T461 343Q461 306 435 279T370 252Q333 252 306 279T279 343Q279 380 305 406Z" />
<glyph unicode="&#xb8;" glyph-name="cedilla" horiz-adv-x="740" d="M424 10L458 -4L374 -173L341 -156L424 10Z" />
<glyph unicode="&#xb9;" glyph-name="uni00B9" horiz-adv-x="740" d="M483 366V338H246V366H350V613Q333 591 308 579T254 567H249V595H254Q294 595 322 623T350 691V696H379V366H483Z" />
<glyph unicode="&#xba;" glyph-name="ordmasculine" horiz-adv-x="740" d="M323 354T282 378T217 442T193 532Q193 580 217 621T282 686T371 710Q420 710 460 686T525 621T549 532Q549 483 525 443T461 378T371 354Q323 354 282 378ZM333 672T301 654T249 603T230
532Q230 494 249 462T300 411T371 392Q409 392 441 410T492 461T511 532Q511 570 492 602T441 653T371 672Q333 672 301 654Z" />
<glyph unicode="&#xbb;" glyph-name="guillemotright" horiz-adv-x="740" d="M196 134L225 111L402 340L225 569L196 547L356 340L196 134ZM402 111L579 340L402 569L373 547L533 340L373 134L402 111Z" />
<glyph unicode="&#xbc;" glyph-name="onequarter" horiz-adv-x="740" d="M279 366V338H50V366H150V613Q133 591 108 579T54 567H49V595H54Q94 595 122 623T150 691V696H179V366H279ZM615 562L151 98L128 121L592 585L615 562ZM587 118H648V90H587V0H559V90H391V113L392
114L561 358H587V118ZM428 118H559V306L428 118Z" />
<glyph unicode="&#xbd;" glyph-name="onehalf" horiz-adv-x="740" d="M279 366V338H50V366H150V613Q133 591 108 579T54 567H49V595H54Q94 595 122 623T150 691V696H179V366H279ZM615 562L151 98L128 121L592 585L615 562ZM652 28V0H426V27L428 29Q460 65 503
111T571 183L577 190Q596 210 606 226T617 262Q617 294 594 315T536 337Q503 337 479 314T455 256V251H427V256Q427 301 459 333T536 365Q583 365 614 336T646 262Q646 236 633 216T597 170L592 164Q564 136 467 28H652Z" />
<glyph unicode="&#xbe;" glyph-name="threequarters" horiz-adv-x="740" d="M199 567Q239 557 264 525T289 452Q289 403 254 368T170 332Q121 332 86 367T50 452V459H78V452Q78 414 104 387T169 360Q207 360 234 387T261 452Q261 486 238 511T180 542L155 507L132
524L237 668H64V696H275V671L199 567ZM615 562L151 98L128 121L592 585L615 562ZM587 118H648V90H587V0H559V90H391V113L392 114L561 358H587V118ZM428 118H559V306L428 118Z" />
<glyph unicode="&#xbf;" glyph-name="questiondown" horiz-adv-x="740" d="M631 256Q631 182 595 120T496 22T360 -15Q286 -15 224 21T126 120T89 256Q89 327 123 388T215 486T343 528Q311 534 290 559T269 618Q269 655 295 681T360 708Q398 708 424 682T451 618Q451
580 425 554T360 527V345Q323 345 297 319T270 256Q270 219 296 193T360 166Q397 166 423 192T450 256H631ZM306 596T322 580T360 564Q383 564 398 580T414 618Q414 640 398 655T360 671Q338 671 322 656T306 618Q306 596 322 580Z" />
<glyph unicode="&#xc0;" glyph-name="Agrave" horiz-adv-x="740" d="M698 0H42L370 711L698 0ZM100 37H640L370 623L100 37ZM303 912L268 867L441 741L460 766L303 912Z" />
<glyph unicode="&#xc1;" glyph-name="Aacute" horiz-adv-x="740" d="M698 0H42L370 711L698 0ZM100 37H640L370 623L100 37ZM437 912L472 867L299 741L280 766L437 912Z" />
<glyph unicode="&#xc2;" glyph-name="Acircumflex" horiz-adv-x="740" d="M698 0H42L370 711L698 0ZM100 37H640L370 623L100 37ZM222 774L370 922L518 774L492 748L370 870L248 748L222 774Z" />
<glyph unicode="&#xc3;" glyph-name="Atilde" horiz-adv-x="740" d="M698 0H42L370 711L698 0ZM100 37H640L370 623L100 37ZM541 833Q497 780 438 780Q396 780 355 808Q326 829 298 829Q258 829 224 787L195 811Q240 865 298 865Q336 865 376 839Q408 817 439
817Q480 817 512 857L541 833Z" />
<glyph unicode="&#xc4;" glyph-name="Adieresis" horiz-adv-x="740" d="M698 0H42L370 711L698 0ZM100 37H640L370 623L100 37ZM548 931T572 907T596 849Q596 815 572 792T514 768Q480 768 457 791T433 849Q433 883 456 907T514 931Q548 931 572 907ZM702 768T679
791T655 849Q655 883 678 907T736 931Q770 931 794 907T818 849Q818 815 794 792T736 768Q702 768 679 791ZM534 802T547 816T561 849Q561 869 548 883T514 897Q494 897 481 883T467 849Q467 830 481 816T514 802Q534 802 547 816ZM716 897T703 883T689 849Q689
830 703 816T736 802Q756 802 769 816T783 849Q783 869 770 883T736 897Q716 897 703 883Z" />
<glyph unicode="&#xc5;" glyph-name="Aring" horiz-adv-x="740" d="M698 0H42L370 711L698 0ZM100 37H640L370 623L100 37ZM326 738T295 769T263 846Q263 890 294 921T370 953Q414 953 445 922T477 846Q477 801 446 770T370 738Q326 738 295 769ZM341 916T321
896T300 846Q300 817 320 796T370 775Q399 775 419 796T440 846Q440 875 420 895T370 916Q341 916 321 896Z" />
<glyph unicode="&#xc6;" glyph-name="AE" horiz-adv-x="740" d="M16 0L314 696H707V659H410V377H650V340H410V37H707V0H373V230H152L56 0H16ZM373 266V659H337L168 266H373Z" />
<glyph unicode="&#xc7;" glyph-name="Ccedilla" horiz-adv-x="740" d="M658 146T598 75T428 -11L348 -173L315 -156L386 -15H373Q294 -15 228 21T122 123T83 275V421Q83 506 120 572T223 674T370 711Q503 711 578 639T655 434H475Q474 485 448 513T370 541Q324
541 294 512T264 430V267Q264 214 295 185T373 155Q478 155 478 263H657Q658 146 598 75Z" />
<glyph unicode="&#xc8;" glyph-name="Egrave" horiz-adv-x="740" d="M120 696H627V520H302V432H572V265H302V176H627V0H120V696ZM303 912L268 867L441 741L460 766L303 912Z" />
<glyph unicode="&#xc9;" glyph-name="Eacute" horiz-adv-x="740" d="M120 696H627V520H302V432H572V265H302V176H627V0H120V696ZM437 912L472 867L299 741L280 766L437 912Z" />
<glyph unicode="&#xca;" glyph-name="Ecircumflex" horiz-adv-x="740" d="M120 696H627V520H302V432H572V265H302V176H627V0H120V696ZM222 774L370 922L518 774L492 748L370 870L248 748L222 774Z" />
<glyph unicode="&#xcb;" glyph-name="Edieresis" horiz-adv-x="740" d="M120 696H627V520H302V432H572V265H302V176H627V0H120V696ZM548 931T572 907T596 849Q596 815 572 792T514 768Q480 768 457 791T433 849Q433 883 456 907T514 931Q548 931 572 907ZM702
768T679 791T655 849Q655 883 678 907T736 931Q770 931 794 907T818 849Q818 815 794 792T736 768Q702 768 679 791ZM534 802T547 816T561 849Q561 869 548 883T514 897Q494 897 481 883T467 849Q467 830 481 816T514 802Q534 802 547 816ZM716 897T703 883T689
849Q689 830 703 816T736 802Q756 802 769 816T783 849Q783 869 770 883T736 897Q716 897 703 883Z" />
<glyph unicode="&#xcc;" glyph-name="Igrave" horiz-adv-x="740" d="M145 520V696H595V520H388V176H595V0H145V176H352V520H145ZM304 912L269 867L442 741L461 766L304 912Z" />
<glyph unicode="&#xcd;" glyph-name="Iacute" horiz-adv-x="740" d="M145 520V696H595V520H388V176H595V0H145V176H352V520H145ZM438 912L473 867L300 741L281 766L438 912Z" />
<glyph unicode="&#xce;" glyph-name="Icircumflex" horiz-adv-x="740" d="M145 520V696H595V520H388V176H595V0H145V176H352V520H145ZM222 774L370 922L518 774L492 748L370 870L248 748L222 774Z" />
<glyph unicode="&#xcf;" glyph-name="Idieresis" horiz-adv-x="740" d="M145 520V696H595V520H388V176H595V0H145V176H352V520H145ZM548 931T572 907T596 849Q596 815 572 792T514 768Q480 768 457 791T433 849Q433 883 456 907T514 931Q548 931 572 907ZM702
768T679 791T655 849Q655 883 678 907T736 931Q770 931 794 907T818 849Q818 815 794 792T736 768Q702 768 679 791ZM534 802T547 816T561 849Q561 869 548 883T514 897Q494 897 481 883T467 849Q467 830 481 816T514 802Q534 802 547 816ZM716 897T703 883T689
849Q689 830 703 816T736 802Q756 802 769 816T783 849Q783 869 770 883T736 897Q716 897 703 883Z" />
<glyph unicode="&#xd0;" glyph-name="Eth" horiz-adv-x="740" d="M455 696T519 658T622 556T660 415V281Q660 205 622 141T520 38T379 0H120V330H20V366H120V696H379Q455 696 519 658Z" />
<glyph unicode="&#xd1;" glyph-name="Ntilde" horiz-adv-x="740" d="M99 1V697H138L624 224V697H661V1H99ZM553 833Q509 780 450 780Q408 780 367 808Q338 829 310 829Q270 829 236 787L207 811Q252 865 310 865Q348 865 388 839Q420 817 451 817Q492 817 524
857L553 833Z" />
<glyph unicode="&#xd2;" glyph-name="Ograve" horiz-adv-x="740" d="M80 503T119 570T224 676T370 715Q449 715 515 676T621 570T660 425V271Q660 193 621 126T516 20T370 -19Q291 -19 225 20T119 126T80 271V425Q80 503 119 570ZM262 223T292 189T370 155Q417
155 447 189T477 271V426Q477 475 447 508T370 541Q322 541 292 508T262 426V271Q262 223 292 189ZM303 912L268 867L441 741L460 766L303 912Z" />
<glyph unicode="&#xd3;" glyph-name="Oacute" horiz-adv-x="740" d="M80 503T119 570T224 676T370 715Q449 715 515 676T621 570T660 425V271Q660 193 621 126T516 20T370 -19Q291 -19 225 20T119 126T80 271V425Q80 503 119 570ZM262 223T292 189T370 155Q417
155 447 189T477 271V426Q477 475 447 508T370 541Q322 541 292 508T262 426V271Q262 223 292 189ZM437 912L472 867L299 741L280 766L437 912Z" />
<glyph unicode="&#xd4;" glyph-name="Ocircumflex" horiz-adv-x="740" d="M80 503T119 570T224 676T370 715Q449 715 515 676T621 570T660 425V271Q660 193 621 126T516 20T370 -19Q291 -19 225 20T119 126T80 271V425Q80 503 119 570ZM262 223T292 189T370 155Q417
155 447 189T477 271V426Q477 475 447 508T370 541Q322 541 292 508T262 426V271Q262 223 292 189ZM222 774L370 922L518 774L492 748L370 870L248 748L222 774Z" />
<glyph unicode="&#xd5;" glyph-name="Otilde" horiz-adv-x="740" d="M80 503T119 570T224 676T370 715Q449 715 515 676T621 570T660 425V271Q660 193 621 126T516 20T370 -19Q291 -19 225 20T119 126T80 271V425Q80 503 119 570ZM262 223T292 189T370 155Q417
155 447 189T477 271V426Q477 475 447 508T370 541Q322 541 292 508T262 426V271Q262 223 292 189ZM541 833Q497 780 438 780Q396 780 355 808Q326 829 298 829Q258 829 224 787L195 811Q240 865 298 865Q336 865 376 839Q408 817 439 817Q480 817 512 857L541
833Z" />
<glyph unicode="&#xd6;" glyph-name="Odieresis" horiz-adv-x="740" d="M80 503T119 570T224 676T370 715Q449 715 515 676T621 570T660 425V271Q660 193 621 126T516 20T370 -19Q291 -19 225 20T119 126T80 271V425Q80 503 119 570ZM262 223T292 189T370 155Q417
155 447 189T477 271V426Q477 475 447 508T370 541Q322 541 292 508T262 426V271Q262 223 292 189ZM548 931T572 907T596 849Q596 815 572 792T514 768Q480 768 457 791T433 849Q433 883 456 907T514 931Q548 931 572 907ZM702 768T679 791T655 849Q655 883 678
907T736 931Q770 931 794 907T818 849Q818 815 794 792T736 768Q702 768 679 791ZM534 802T547 816T561 849Q561 869 548 883T514 897Q494 897 481 883T467 849Q467 830 481 816T514 802Q534 802 547 816ZM716 897T703 883T689 849Q689 830 703 816T736 802Q756
802 769 816T783 849Q783 869 770 883T736 897Q716 897 703 883Z" />
<glyph unicode="&#xd7;" glyph-name="multiply" horiz-adv-x="740" d="M200 477L344 333L200 189L226 163L370 307L514 163L540 189L396 333L540 477L514 503L370 359L226 503L200 477Z" />
<glyph unicode="&#xd8;" glyph-name="Oslash" horiz-adv-x="740" d="M616 587T638 535T660 425V271Q660 193 621 126T516 20T370 -19Q271 -19 190 44L127 -52L97 -32L163 68Q124 109 102 161T80 271V425Q80 503 119 570T224 676T370 715Q420 715 466 699T549 653L613
749L643 728L577 628Q616 587 638 535ZM262 248T269 228L451 503Q421 541 370 541Q322 541 292 508T262 426V271Q262 248 269 228ZM477 426Q477 449 470 467L289 193Q320 155 370 155Q417 155 447 189T477 271V426Z" />
<glyph unicode="&#xd9;" glyph-name="Ugrave" horiz-adv-x="740" d="M294 -15T230 23T127 125T89 266V696H651V266Q651 190 613 126T511 23T370 -15Q294 -15 230 23ZM303 912L268 867L441 741L460 766L303 912Z" />
<glyph unicode="&#xda;" glyph-name="Uacute" horiz-adv-x="740" d="M294 -15T230 23T127 125T89 266V696H651V266Q651 190 613 126T511 23T370 -15Q294 -15 230 23ZM437 912L472 867L299 741L280 766L437 912Z" />
<glyph unicode="&#xdb;" glyph-name="Ucircumflex" horiz-adv-x="740" d="M294 -15T230 23T127 125T89 266V696H651V266Q651 190 613 126T511 23T370 -15Q294 -15 230 23ZM222 774L370 922L518 774L492 748L370 870L248 748L222 774Z" />
<glyph unicode="&#xdc;" glyph-name="Udieresis" horiz-adv-x="740" d="M294 -15T230 23T127 125T89 266V696H651V266Q651 190 613 126T511 23T370 -15Q294 -15 230 23ZM548 931T572 907T596 849Q596 815 572 792T514 768Q480 768 457 791T433 849Q433 883 456
907T514 931Q548 931 572 907ZM702 768T679 791T655 849Q655 883 678 907T736 931Q770 931 794 907T818 849Q818 815 794 792T736 768Q702 768 679 791ZM534 802T547 816T561 849Q561 869 548 883T514 897Q494 897 481 883T467 849Q467 830 481 816T514 802Q534
802 547 816ZM716 897T703 883T689 849Q689 830 703 816T736 802Q756 802 769 816T783 849Q783 869 770 883T736 897Q716 897 703 883Z" />
<glyph unicode="&#xdd;" glyph-name="Yacute" horiz-adv-x="740" d="M73 696H667L389 285V0H352V285L73 696ZM437 912L472 867L299 741L280 766L437 912Z" />
<glyph unicode="&#xde;" glyph-name="Thorn" horiz-adv-x="740" d="M489 596T548 566T643 481T678 354Q678 285 643 227T546 138Q493 111 419 111H176V0H139V707H176V596H419Q489 596 548 566ZM176 559V148H419Q483 148 524 168Q577 193 609 243T641 354Q641 414
609 464T523 539Q482 559 419 559H176Z" />
<glyph unicode="&#xdf;" glyph-name="germandbls" horiz-adv-x="740" d="M649 164T619 113T532 31T398 0H317V37H398Q465 37 513 62T586 130T612 228Q612 279 586 321T516 387T418 412H387V449L561 660L166 659L165 0H128L129 696H609V660L435 448Q494 444 542
414T619 335T648 228Q649 164 619 113Z" />
<glyph unicode="&#xe0;" glyph-name="agrave" horiz-adv-x="740" d="M351 696H390L676 0H636L542 230H199L104 0H65L351 696ZM214 266H527L370 648L214 266ZM303 912L268 867L441 741L460 766L303 912Z" />
<glyph unicode="&#xe1;" glyph-name="aacute" horiz-adv-x="740" d="M351 696H390L676 0H636L542 230H199L104 0H65L351 696ZM214 266H527L370 648L214 266ZM437 912L472 867L299 741L280 766L437 912Z" />
<glyph unicode="&#xe2;" glyph-name="acircumflex" horiz-adv-x="740" d="M351 696H390L676 0H636L542 230H199L104 0H65L351 696ZM214 266H527L370 648L214 266ZM222 774L370 922L518 774L492 748L370 870L248 748L222 774Z" />
<glyph unicode="&#xe3;" glyph-name="atilde" horiz-adv-x="740" d="M351 696H390L676 0H636L542 230H199L104 0H65L351 696ZM214 266H527L370 648L214 266ZM541 833Q497 780 438 780Q396 780 355 808Q326 829 298 829Q258 829 224 787L195 811Q240 865 298 865Q336
865 376 839Q408 817 439 817Q480 817 512 857L541 833Z" />
<glyph unicode="&#xe4;" glyph-name="adieresis" horiz-adv-x="740" d="M351 696H390L676 0H636L542 230H199L104 0H65L351 696ZM214 266H527L370 648L214 266ZM548 931T572 907T596 849Q596 815 572 792T514 768Q480 768 457 791T433 849Q433 883 456 907T514
931Q548 931 572 907ZM702 768T679 791T655 849Q655 883 678 907T736 931Q770 931 794 907T818 849Q818 815 794 792T736 768Q702 768 679 791ZM534 802T547 816T561 849Q561 869 548 883T514 897Q494 897 481 883T467 849Q467 830 481 816T514 802Q534 802 547
816ZM716 897T703 883T689 849Q689 830 703 816T736 802Q756 802 769 816T783 849Q783 869 770 883T736 897Q716 897 703 883Z" />
<glyph unicode="&#xe5;" glyph-name="aring" horiz-adv-x="740" d="M351 696H390L676 0H636L542 230H199L104 0H65L351 696ZM214 266H527L370 648L214 266ZM326 738T295 769T263 846Q263 890 294 921T370 953Q414 953 445 922T477 846Q477 801 446 770T370 738Q326
738 295 769ZM341 916T321 896T300 846Q300 817 320 796T370 775Q399 775 419 796T440 846Q440 875 420 895T370 916Q341 916 321 896Z" />
<glyph unicode="&#xe6;" glyph-name="ae" horiz-adv-x="740" d="M401 340V37H698V0H364V230H143L47 0H7L305 696H698V659H401V377H641V340H401ZM159 266H364V659H328L159 266Z" />
<glyph unicode="&#xe7;" glyph-name="ccedilla" horiz-adv-x="740" d="M655 171T626 119T545 33T428 -11L348 -173L315 -156L386 -15H377Q301 -15 236 23T133 125T95 266V430Q95 506 132 570T234 673T375 711Q452 711 515 679T616 590T653 464H617Q616 524 584
572T498 647T375 674Q309 674 253 641T164 552T131 430V266Q131 200 164 144T254 55T377 22Q445 22 500 49T586 124T619 232H655Q655 171 626 119Z" />
<glyph unicode="&#xe8;" glyph-name="egrave" horiz-adv-x="740" d="M130 696H620V659H167V377H561V340H167V37H620V0H130V696ZM307 912L272 867L445 741L464 766L307 912Z" />
<glyph unicode="&#xe9;" glyph-name="eacute" horiz-adv-x="740" d="M130 696H620V659H167V377H561V340H167V37H620V0H130V696ZM441 912L476 867L303 741L284 766L441 912Z" />
<glyph unicode="&#xea;" glyph-name="ecircumflex" horiz-adv-x="740" d="M130 696H620V659H167V377H561V340H167V37H620V0H130V696ZM222 774L370 922L518 774L492 748L370 870L248 748L222 774Z" />
<glyph unicode="&#xeb;" glyph-name="edieresis" horiz-adv-x="740" d="M130 696H620V659H167V377H561V340H167V37H620V0H130V696ZM548 931T572 907T596 849Q596 815 572 792T514 768Q480 768 457 791T433 849Q433 883 456 907T514 931Q548 931 572 907ZM702 768T679
791T655 849Q655 883 678 907T736 931Q770 931 794 907T818 849Q818 815 794 792T736 768Q702 768 679 791ZM534 802T547 816T561 849Q561 869 548 883T514 897Q494 897 481 883T467 849Q467 830 481 816T514 802Q534 802 547 816ZM716 897T703 883T689 849Q689
830 703 816T736 802Q756 802 769 816T783 849Q783 869 770 883T736 897Q716 897 703 883Z" />
<glyph unicode="&#xec;" glyph-name="igrave" horiz-adv-x="740" d="M352 37V659H145V696H595V659H388V37H595V0H145V37H352ZM303 912L268 867L441 741L460 766L303 912Z" />
<glyph unicode="&#xed;" glyph-name="iacute" horiz-adv-x="740" d="M352 37V659H145V696H595V659H388V37H595V0H145V37H352ZM437 912L472 867L299 741L280 766L437 912Z" />
<glyph unicode="&#xee;" glyph-name="icircumflex" horiz-adv-x="740" d="M352 37V659H145V696H595V659H388V37H595V0H145V37H352ZM222 774L370 922L518 774L492 748L370 870L248 748L222 774Z" />
<glyph unicode="&#xef;" glyph-name="idieresis" horiz-adv-x="740" d="M352 37V659H145V696H595V659H388V37H595V0H145V37H352ZM225 768T202 791T178 849Q178 883 201 907T259 931Q293 931 317 907T341 849Q341 815 317 792T259 768Q225 768 202 791ZM447 768T424
791T400 849Q400 883 423 907T481 931Q515 931 539 907T563 849Q563 815 539 792T481 768Q447 768 424 791ZM212 830T225 816T259 802Q278 802 292 816T306 849Q306 869 293 883T259 897Q239 897 226 883T212 849Q212 830 225 816ZM434 830T447 816T481 802Q500
802 514 816T528 849Q528 869 515 883T481 897Q461 897 448 883T434 849Q434 830 447 816Z" />
<glyph unicode="&#xf0;" glyph-name="eth" horiz-adv-x="740" d="M439 696T503 658T606 556T644 415V281Q644 205 606 141T504 38T363 0H106V330H20V366H106V696H363Q439 696 503 658ZM607 415Q607 481 574 537T485 626T362 659H143V366H363V330H143V37H362Q428
37 484 70T574 159T607 281V415Z" />
<glyph unicode="&#xf1;" glyph-name="ntilde" horiz-adv-x="740" d="M98 0V696H137L623 224V696H660V0H623V172L135 648V0H98ZM554 833Q510 780 451 780Q409 780 368 808Q339 829 311 829Q271 829 237 787L208 811Q253 865 311 865Q349 865 389 839Q421 817 452
817Q493 817 525 857L554 833Z" />
<glyph unicode="&#xf2;" glyph-name="ograve" horiz-adv-x="740" d="M448 711T514 673T618 568T657 424V272Q657 194 619 128T514 24T370 -15Q292 -15 226 23T122 128T83 272V424Q83 502 121 568T226 672T370 711Q448 711 514 673ZM120 204T153 147T244 56T370
22Q438 22 495 55T586 146T620 272V424Q620 492 587 549T496 640T370 674Q302 674 245 641T154 550T120 424V272Q120 204 153 147ZM303 912L268 867L441 741L460 766L303 912Z" />
<glyph unicode="&#xf3;" glyph-name="oacute" horiz-adv-x="740" d="M448 711T514 673T618 568T657 424V272Q657 194 619 128T514 24T370 -15Q292 -15 226 23T122 128T83 272V424Q83 502 121 568T226 672T370 711Q448 711 514 673ZM120 204T153 147T244 56T370
22Q438 22 495 55T586 146T620 272V424Q620 492 587 549T496 640T370 674Q302 674 245 641T154 550T120 424V272Q120 204 153 147ZM437 912L472 867L299 741L280 766L437 912Z" />
<glyph unicode="&#xf4;" glyph-name="ocircumflex" horiz-adv-x="740" d="M448 711T514 673T618 568T657 424V272Q657 194 619 128T514 24T370 -15Q292 -15 226 23T122 128T83 272V424Q83 502 121 568T226 672T370 711Q448 711 514 673ZM120 204T153 147T244 56T370
22Q438 22 495 55T586 146T620 272V424Q620 492 587 549T496 640T370 674Q302 674 245 641T154 550T120 424V272Q120 204 153 147ZM222 774L370 922L518 774L492 748L370 870L248 748L222 774Z" />
<glyph unicode="&#xf5;" glyph-name="otilde" horiz-adv-x="740" d="M448 711T514 673T618 568T657 424V272Q657 194 619 128T514 24T370 -15Q292 -15 226 23T122 128T83 272V424Q83 502 121 568T226 672T370 711Q448 711 514 673ZM120 204T153 147T244 56T370
22Q438 22 495 55T586 146T620 272V424Q620 492 587 549T496 640T370 674Q302 674 245 641T154 550T120 424V272Q120 204 153 147ZM541 833Q497 780 438 780Q396 780 355 808Q326 829 298 829Q258 829 224 787L195 811Q240 865 298 865Q336 865 376 839Q408 817
439 817Q480 817 512 857L541 833Z" />
<glyph unicode="&#xf6;" glyph-name="odieresis" horiz-adv-x="740" d="M448 711T514 673T618 568T657 424V272Q657 194 619 128T514 24T370 -15Q292 -15 226 23T122 128T83 272V424Q83 502 121 568T226 672T370 711Q448 711 514 673ZM120 204T153 147T244 56T370
22Q438 22 495 55T586 146T620 272V424Q620 492 587 549T496 640T370 674Q302 674 245 641T154 550T120 424V272Q120 204 153 147ZM548 931T572 907T596 849Q596 815 572 792T514 768Q480 768 457 791T433 849Q433 883 456 907T514 931Q548 931 572 907ZM702 768T679
791T655 849Q655 883 678 907T736 931Q770 931 794 907T818 849Q818 815 794 792T736 768Q702 768 679 791ZM534 802T547 816T561 849Q561 869 548 883T514 897Q494 897 481 883T467 849Q467 830 481 816T514 802Q534 802 547 816ZM716 897T703 883T689 849Q689
830 703 816T736 802Q756 802 769 816T783 849Q783 869 770 883T736 897Q716 897 703 883Z" />
<glyph unicode="&#xf7;" glyph-name="divide" horiz-adv-x="740" d="M456 467T431 442T370 417Q334 417 309 442T284 503Q284 539 309 564T370 589Q406 589 431 564T456 503Q456 467 431 442ZM321 483T335 469T370 454Q390 454 404 468T419 503Q419 523 405 537T370
552Q350 552 336 538T321 503Q321 483 335 469ZM570 330H171V367H570V330ZM456 159T431 134T370 108Q334 108 309 133T284 194Q284 230 309 255T370 280Q406 280 431 255T456 194Q456 159 431 134ZM390 145T404 159T419 194Q419 214 405 229T370 244Q350 244 336
229T321 194Q321 174 335 160T370 145Q390 145 404 159Z" />
<glyph unicode="&#xf8;" glyph-name="oslash" horiz-adv-x="740" d="M614 585T635 534T657 424V272Q657 194 619 128T514 24T370 -15Q320 -15 275 1T192 47L127 -52L97 -32L165 71Q126 111 105 162T83 272V424Q83 502 121 568T226 672T370 711Q469 711 547 649L613
749L643 728L575 625Q614 585 635 534ZM120 224T137 181T186 103L527 619Q494 645 454 659T370 674Q302 674 245 641T154 550T120 424V272Q120 224 137 181ZM620 424Q620 472 603 515T554 593L213 78Q282 22 370 22Q438 22 495 55T586 146T620 272V424Z" />
<glyph unicode="&#xf9;" glyph-name="ugrave" horiz-adv-x="740" d="M89 696H126V266Q126 200 159 144T248 55T370 22Q436 22 492 55T581 144T614 266V696H651V266Q651 190 613 126T511 23T370 -15Q294 -15 230 23T127 125T89 266V696ZM303 912L268 867L441 741L460
766L303 912Z" />
<glyph unicode="&#xfa;" glyph-name="uacute" horiz-adv-x="740" d="M89 696H126V266Q126 200 159 144T248 55T370 22Q436 22 492 55T581 144T614 266V696H651V266Q651 190 613 126T511 23T370 -15Q294 -15 230 23T127 125T89 266V696ZM437 912L472 867L299 741L280
766L437 912Z" />
<glyph unicode="&#xfb;" glyph-name="ucircumflex" horiz-adv-x="740" d="M89 696H126V266Q126 200 159 144T248 55T370 22Q436 22 492 55T581 144T614 266V696H651V266Q651 190 613 126T511 23T370 -15Q294 -15 230 23T127 125T89 266V696ZM222 774L370 922L518
774L492 748L370 870L248 748L222 774Z" />
<glyph unicode="&#xfc;" glyph-name="udieresis" horiz-adv-x="740" d="M89 696H126V266Q126 200 159 144T248 55T370 22Q436 22 492 55T581 144T614 266V696H651V266Q651 190 613 126T511 23T370 -15Q294 -15 230 23T127 125T89 266V696ZM548 931T572 907T596
849Q596 815 572 792T514 768Q480 768 457 791T433 849Q433 883 456 907T514 931Q548 931 572 907ZM702 768T679 791T655 849Q655 883 678 907T736 931Q770 931 794 907T818 849Q818 815 794 792T736 768Q702 768 679 791ZM534 802T547 816T561 849Q561 869 548
883T514 897Q494 897 481 883T467 849Q467 830 481 816T514 802Q534 802 547 816ZM716 897T703 883T689 849Q689 830 703 816T736 802Q756 802 769 816T783 849Q783 869 770 883T736 897Q716 897 703 883Z" />
<glyph unicode="&#xfd;" glyph-name="yacute" horiz-adv-x="740" d="M124 696L371 324L616 696H660L389 285V0H352V285L80 696H124ZM438 912L473 867L300 741L281 766L438 912Z" />
<glyph unicode="&#xfe;" glyph-name="thorn" horiz-adv-x="740" d="M139 0V707H176V596H419Q492 596 545 569Q606 538 642 481T678 354Q678 285 643 227T546 138Q493 111 419 111H176V0H139ZM176 148H419Q483 148 524 168Q577 193 609 243T641 354Q641 414 609
464T523 539Q482 559 419 559H176V148Z" />
<glyph unicode="&#xff;" glyph-name="ydieresis" horiz-adv-x="740" d="M124 696L371 324L616 696H660L389 285V0H352V285L80 696H124ZM548 931T572 907T596 849Q596 815 572 792T514 768Q480 768 457 791T433 849Q433 883 456 907T514 931Q548 931 572 907ZM702
768T679 791T655 849Q655 883 678 907T736 931Q770 931 794 907T818 849Q818 815 794 792T736 768Q702 768 679 791ZM534 802T547 816T561 849Q561 869 548 883T514 897Q494 897 481 883T467 849Q467 830 481 816T514 802Q534 802 547 816ZM716 897T703 883T689
849Q689 830 703 816T736 802Q756 802 769 816T783 849Q783 869 770 883T736 897Q716 897 703 883Z" />
<glyph unicode="&#x2013;" glyph-name="endash" horiz-adv-x="740" d="M152 327V364H588V327H152Z" />
<glyph unicode="&#x2014;" glyph-name="emdash" horiz-adv-x="740" d="M102 327V364H638V327H102Z" />
<glyph unicode="&#x2018;" glyph-name="quoteleft" horiz-adv-x="740" d="M333 402T307 428T280 493Q280 515 292 539L384 696H426L360 583L370 584Q408 584 434 558T461 493Q461 455 435 429T370 402Q333 402 307 428Z" />
<glyph unicode="&#x2019;" glyph-name="quoteright" horiz-adv-x="740" d="M333 514T306 541T279 605Q279 643 306 669T370 696Q408 696 434 670T461 605Q461 581 448 560V559L357 402H314L380 515L370 514Q333 514 306 541Z" />
<glyph unicode="&#x201a;" glyph-name="quotesinglbase" horiz-adv-x="740" d="M314 -126L380 -13Q377 -14 370 -14Q332 -14 306 12T279 77Q279 114 305 140T370 167Q408 167 434 141T461 77Q461 54 448 31L357 -126H314Z" />
<glyph unicode="&#x201c;" glyph-name="quotedblleft" horiz-adv-x="740" d="M163 516T175 538V539L267 696H309L243 583L254 584Q291 584 317 558T344 493Q344 455 318 429T254 402Q216 402 190 428T163 493Q163 516 175 538ZM525 584T551 558T578 493Q578 456
552 429T487 402Q450 402 423 429T396 493Q396 517 409 538V539L500 696H543L477 583L487 584Q525 584 551 558Z" />
<glyph unicode="&#x201d;" glyph-name="quotedblright" horiz-adv-x="740" d="M216 515T190 541T163 605Q163 643 189 669T253 696Q291 696 317 670T344 605Q344 581 331 560L332 559L240 402H197L263 516Q260 515 253 515Q216 515 190 541ZM566 559L474 402H431L497
516Q494 515 487 515Q450 515 424 541T397 605Q397 643 423 669T487 696Q525 696 551 670T578 605Q578 581 565 560L566 559Z" />
<glyph unicode="&#x201e;" glyph-name="quotedblbase" horiz-adv-x="740" d="M454 -126L520 -13Q517 -14 510 -14Q472 -14 446 12T419 77Q419 114 445 140T510 167Q548 167 574 141T601 77Q601 54 588 31L497 -126H454ZM431 -126L497 -13Q494 -14 487 -14Q449
-14 423 12T396 77Q396 114 422 140T487 167Q525 167 551 141T578 77Q578 54 565 31L474 -126H431Z" />
<glyph unicode="&#x2022;" glyph-name="bullet" horiz-adv-x="740" d="M213 371T234 407T291 464T371 486Q414 486 450 465T507 407T528 328Q528 285 507 249T450 192T371 170Q328 170 292 191T234 249T213 328Q213 371 234 407Z" />
<glyph unicode="&#x2039;" glyph-name="guilsinglleft" horiz-adv-x="740" d="M263 340L440 569L469 547L310 340L469 134L440 111L263 340Z" />
<glyph unicode="&#x203a;" glyph-name="guilsinglright" horiz-adv-x="740" d="M271 134L300 111L477 340L300 569L271 547L431 340L271 134Z" />
</font>
</defs>
</svg>
