<?xml version="1.0" standalone="no"?>
<!DOCTYPE svg PUBLIC "-//W3C//DTD SVG 1.1//EN" "http://www.w3.org/Graphics/SVG/1.1/DTD/svg11.dtd">
<svg xmlns="http://www.w3.org/2000/svg">
<defs >
<font id="DMMono" horiz-adv-x="600" ><font-face
    font-family="DM Mono Light"
    units-per-em="1000"
    panose-1="2 11 3 9 4 2 1 4 1 3"
    ascent="992"
    descent="-310"
    alphabetic="0" />
<glyph unicode=" " glyph-name="space" />
<glyph unicode="!" glyph-name="exclam" d="M266 245L258 700H342L333 245H266ZM300 0Q273 0 254 19T234 66Q234 93 253 112T300 132Q327 132 346 113T366 66Q366 39 347 20T300 0Z" />
<glyph unicode="&quot;" glyph-name="quotedbl" d="M413 398V700H489V398H413ZM367 398V700H443V398H367Z" />
<glyph unicode="#" glyph-name="numbersign" d="M97 0L129 204H20V266H139L165 434H60V496H175L207 700H274L242 496H404L436 700H503L471 496H580V434H461L435 266H540V204H425L393 0H326L358 204H196L164 0H97ZM206 266H368L394 434H232L206 266Z" />
<glyph unicode="$" glyph-name="dollar" d="M263 -87V-9Q165 2 108 62T51 211H124Q124 155 159 111T263 56V340Q158 368 116 417T73 537Q73 603 122 652T263 710V791H333V711Q422 702 474 650T527 522H455Q455 561 425 598T333 645V391L336 390Q437 365 490 318T543
188Q543 133 517 90T443 21T333 -11V-87H263ZM145 536Q145 496 169 467T263 412V646Q211 638 178 610T145 536ZM471 184Q471 236 441 267T333 322V53Q400 60 435 98T471 184Z" />
<glyph unicode="%" glyph-name="percent" d="M166 402Q102 402 61 444T20 557Q20 628 61 670T166 712Q230 712 271 670T312 557Q312 486 271 444T166 402ZM166 456Q201 456 226 482T252 557Q252 606 227 632T166 658Q132 658 106 632T80 557Q80 508 106 482T166
456ZM69 69L26 111L531 631L574 589L69 69ZM434 -12Q370 -12 329 30T288 143Q288 214 329 256T434 298Q498 298 539 256T580 143Q580 72 539 30T434 -12ZM434 42Q469 42 494 68T520 143Q520 192 495 218T434 244Q400 244 374 218T348 143Q348 94 374 68T434 42Z"
/>
<glyph unicode="&amp;" glyph-name="ampersand" d="M252 -12Q189 -12 142 14T67 88T40 200Q40 265 73 316T168 402Q139 443 127 479T114 552Q114 623 162 667T290 712Q366 712 413 669T460 557H390Q390 601 360 624T290 648Q240 648 212 622T184 553Q184 522 200
489T251 413L422 203L493 362H568L467 147L587 0H503L433 84Q404 41 360 15T252 -12ZM110 202Q110 138 149 95T252 52Q298 52 330 73T388 137L208 352Q110 301 110 202Z" />
<glyph unicode="&apos;" glyph-name="quotesingle" d="M262 398V700H338V398H262Z" />
<glyph unicode="(" glyph-name="parenleft" d="M356 -185Q305 -128 260 -57T186 105T158 313Q158 429 186 520T259 683T356 811H433V804Q342 709 285 589T228 313Q228 157 285 37T433 -178V-185H356Z" />
<glyph unicode=")" glyph-name="parenright" d="M167 -185V-178Q258 -83 315 37T372 313Q372 469 315 589T167 804V811H244Q296 755 341 684T414 521T442 313Q442 197 414 106T341 -57T244 -185H167Z" />
<glyph unicode="*" glyph-name="asterisk" d="M262 101L279 315L102 198L66 262L257 350L66 438L102 502L279 385L262 599H338L321 385L498 502L534 438L343 350L534 262L498 198L321 315L338 101H262Z" />
<glyph unicode="+" glyph-name="plus" d="M268 130V318H80V382H268V570H332V382H520V318H332V130H268Z" />
<glyph unicode="," glyph-name="comma" d="M177 -120L260 142H352L242 -120H177Z" />
<glyph unicode="-" glyph-name="hyphen" d="M140 320V380H460V320H140Z" />
<glyph unicode="." glyph-name="period" d="M300 0Q273 0 254 19T234 66Q234 93 253 112T300 132Q327 132 346 113T366 66Q366 39 347 20T300 0Z" />
<glyph unicode="/" glyph-name="slash" d="M90 -90L436 760H510L163 -90H90Z" />
<glyph unicode="0" glyph-name="zero" d="M300 -12Q222 -12 162 31T68 156T34 350Q34 463 68 544T162 668T300 712Q378 712 438 669T532 544T566 350Q566 238 532 157T438 32T300 -12ZM106 350Q106 274 123 215T172 116L378 627Q342 648 300 648Q243 648 200 612T131
509T106 350ZM300 51Q357 51 401 87T469 191T494 350Q494 426 477 485T428 583L222 72Q258 51 300 51Z" />
<glyph unicode="1" glyph-name="one" d="M73 0V64H258V617L83 582V633L279 700H328V64H523V0H73Z" />
<glyph unicode="2" glyph-name="two" d="M77 0V54Q189 143 270 217T396 359T441 502Q441 570 403 609T299 648Q250 648 216 627T165 572T148 495H78Q78 562 107 610T186 685T299 712Q400 712 456 655T513 503Q513 439 486 381T412 268T308 163T189 64H532V0H77Z" />
<glyph unicode="3" glyph-name="three" d="M311 -12Q244 -12 190 13T103 87T67 205H139Q140 163 161 129T220 73T311 52Q390 52 431 93T473 204Q473 252 449 283T385 330T294 346H234V410H287Q360 410 402 442T444 533Q444 583 410 615T311 648Q250 648 212 614T168
523H96Q99 578 126 620T201 687T311 712Q377 712 423 688T492 624T516 537Q516 485 484 445T406 387V381Q467 363 506 321T545 205Q545 144 517 95T436 17T311 -12Z" />
<glyph unicode="4" glyph-name="four" d="M392 0V169H54V222L378 700H461V233H568V169H461V0H392ZM133 233H395V616L133 233Z" />
<glyph unicode="5" glyph-name="five" d="M300 -12Q229 -12 179 15T99 88T61 191H133Q143 130 188 91T301 52Q355 52 393 76T451 141T472 235Q472 318 426 365T305 413Q245 413 203 386T134 317H68L128 700H497V636H183L144 410H148Q172 436 214 456T310 477Q377
477 429 449T510 366T540 236Q540 170 513 114T432 23T300 -12Z" />
<glyph unicode="6" glyph-name="six" d="M314 -12Q227 -12 170 30T84 148T56 321Q56 436 87 524T179 662T324 712Q389 712 436 687T510 619T542 523H475Q465 580 425 614T324 648Q271 648 227 615T154 511T122 332H126Q151 379 200 413T322 447Q385 447 435 417T515
337T545 222Q545 159 516 106T436 20T314 -12ZM309 52Q358 52 395 74T452 133T473 218Q473 265 453 302T395 361T309 383Q260 383 223 362T165 303T144 217Q144 170 165 133T223 74T309 52Z" />
<glyph unicode="7" glyph-name="seven" d="M180 0L458 636H66V700H530V642L255 0H180Z" />
<glyph unicode="8" glyph-name="eight" d="M300 -12Q232 -12 180 14T99 85T70 188Q70 255 106 302T189 368V372Q143 393 116 433T89 526Q89 578 115 620T189 687T300 712Q360 712 407 687T483 620T511 526Q511 474 484 434T411 372V368Q458 349 494 302T530 188Q530
131 501 86T420 14T300 -12ZM300 400Q366 400 403 434T441 524Q441 580 404 614T300 648Q234 648 197 614T159 524Q159 469 196 435T300 400ZM300 52Q370 52 414 88T458 195Q458 266 414 302T300 338Q230 338 186 302T142 195Q142 125 186 89T300 52Z" />
<glyph unicode="9" glyph-name="nine" d="M288 -12Q226 -12 177 13T99 82T64 177H132Q142 121 183 87T288 52Q371 52 424 128T484 368H480Q452 318 408 286T284 253Q221 253 171 283T91 364T61 478Q61 542 90 595T171 680T292 712Q421 712 485 623T550 379Q550
264 520 176T432 38T288 -12ZM297 317Q347 317 384 338T441 398T462 483Q462 531 442 568T384 626T297 648Q247 648 210 626T153 567T133 482Q133 435 153 398T210 339T297 317Z" />
<glyph unicode=":" glyph-name="colon" d="M300 0Q273 0 254 19T234 66Q234 93 253 112T300 132Q327 132 346 113T366 66Q366 39 347 20T300 0ZM300 400Q273 400 254 419T234 466Q234 493 253 512T300 532Q327 532 346 513T366 466Q366 439 347 420T300 400Z" />
<glyph unicode=";" glyph-name="semicolon" d="M300 400Q273 400 254 419T234 466Q234 493 253 512T300 532Q327 532 346 513T366 466Q366 439 347 420T300 400ZM177 -120L260 142H352L242 -120H177Z" />
<glyph unicode="&lt;" glyph-name="less" d="M379 82L113 350L379 616H475L211 353V347L475 82H379Z" />
<glyph unicode="=" glyph-name="equal" d="M80 440V504H520V440H80ZM80 196V260H520V196H80Z" />
<glyph unicode="&gt;" glyph-name="greater" d="M125 82L389 347V353L125 616H221L487 350L221 82H125Z" />
<glyph unicode="?" glyph-name="question" d="M226 206L222 349H248Q332 349 383 384T435 508Q435 575 396 611T289 648Q224 648 185 612T141 514H74Q76 573 104 617T179 687T289 712Q352 712 400 688T476 618T503 508Q503 434 472 390T392 324T289 299L286 206H226ZM255
0Q228 0 209 19T189 66Q189 93 208 112T255 132Q282 132 301 113T321 66Q321 39 302 20T255 0Z" />
<glyph unicode="@" glyph-name="at" d="M373 -94Q266 -94 195 -42T88 101T52 303Q52 407 75 482T139 605T229 677T333 700Q435 700 494 648T554 499V107H503L495 170H491Q476 140 447 119T374 98Q298 98 250 152T201 304Q201 402 249 455T374 508Q419 508 447
491T491 447V499Q491 565 448 602T333 640Q279 640 230 608T150 501T118 303Q118 235 133 175T181 67T261 -7T373 -34H511V-94H373ZM378 154Q427 154 459 190T491 303Q491 380 459 416T378 452Q329 452 297 416T265 303Q265 226 297 190T378 154Z" />
<glyph unicode="A" glyph-name="A" d="M36 0L261 700H340L564 0H487L432 178H168L113 0H36ZM298 602L186 238H414L302 602H298Z" />
<glyph unicode="B" glyph-name="B" d="M73 0V700H295Q405 700 458 650T512 523Q512 482 497 451T457 398T405 365V359Q437 349 465 327T510 270T528 191Q528 139 502 96T426 26T302 0H73ZM143 392H293Q364 392 402 425T440 516Q440 572 403 604T290 636H143V392ZM143
64H297Q373 64 414 99T456 197Q456 259 413 294T294 330H143V64Z" />
<glyph unicode="C" glyph-name="C" d="M307 -12Q224 -12 163 32T68 158T35 350Q35 461 68 542T162 667T307 712Q412 712 477 654T554 500H476Q466 562 423 604T307 646Q215 646 161 568T107 350Q107 211 161 133T307 54Q383 54 424 94T476 198H554Q538 101 475
45T307 -12Z" />
<glyph unicode="D" glyph-name="D" d="M72 0V700H205Q322 700 397 658T508 537T545 350Q545 242 509 164T397 43T205 0H72ZM142 64H205Q304 64 362 99T447 199T473 350Q473 437 447 501T363 601T205 636H142V64Z" />
<glyph unicode="E" glyph-name="E" d="M89 0V700H520V636H159V384H490V320H159V64H520V0H89Z" />
<glyph unicode="F" glyph-name="F" d="M96 0V700H524V636H166V373H476V309H166V0H96Z" />
<glyph unicode="G" glyph-name="G" d="M295 -12Q222 -12 165 31T76 155T43 350Q43 464 76 545T170 669T310 712Q374 712 423 686T503 612T540 500H462Q452 564 414 605T310 646Q221 646 168 568T115 350Q115 257 138 191T204 89T300 54Q345 54 377 75T431 131T464
210T477 299H314V361H549V0H485L479 114H475Q454 56 411 22T295 -12Z" />
<glyph unicode="H" glyph-name="H" d="M50 0V700H120V391H480V700H550V0H480V327H120V0H50Z" />
<glyph unicode="I" glyph-name="I" d="M101 0V60H265V640H101V700H499V640H335V60H499V0H101Z" />
<glyph unicode="J" glyph-name="J" d="M307 -12Q207 -12 154 45T101 203H172Q173 163 187 129T230 75T307 54Q378 54 407 96T437 202V700H507V202Q507 99 455 44T307 -12Z" />
<glyph unicode="K" glyph-name="K" d="M85 0V700H155V370L447 700H538L229 352V348L541 0H447L155 325V0H85Z" />
<glyph unicode="L" glyph-name="L" d="M91 0V700H161V64H522V0H91Z" />
<glyph unicode="M" glyph-name="M" d="M54 0V700H130L300 356L469 700H546V0H476V563L326 260H274L124 562V0H54Z" />
<glyph unicode="N" glyph-name="N" d="M60 0V700H136L470 122V700H540V0H464L130 579V0H60Z" />
<glyph unicode="O" glyph-name="O" d="M300 -12Q216 -12 156 33T63 160T30 350Q30 457 62 538T155 666T300 712Q385 712 445 666T537 539T570 350Q570 242 538 161T445 34T300 -12ZM300 54Q389 54 443 131T498 350Q498 491 444 568T300 646Q212 646 157 569T102
350Q102 209 157 132T300 54Z" />
<glyph unicode="P" glyph-name="P" d="M76 0V700H306Q387 700 437 671T510 593T533 489Q533 434 510 386T437 308T306 278H146V0H76ZM146 342H306Q383 342 422 383T461 489Q461 554 422 595T306 636H146V342Z" />
<glyph unicode="Q" glyph-name="Q" d="M300 -12Q216 -12 156 33T63 160T30 350Q30 457 62 538T155 666T300 712Q385 712 445 666T537 539T570 350Q570 224 526 134T401 8L552 -147H458L327 -11Q314 -12 300 -12ZM300 54Q389 54 443 131T498 350Q498 491 444 568T300
646Q212 646 157 569T102 350Q102 209 157 132T300 54Z" />
<glyph unicode="R" glyph-name="R" d="M86 0V700H293Q373 700 425 674T502 602T528 497Q528 427 492 375T381 304L536 0H452L306 293Q300 293 293 293H156V0H86ZM156 358H291Q377 358 416 397T456 497Q456 561 418 598T290 636H156V358Z" />
<glyph unicode="S" glyph-name="S" d="M307 -12Q234 -12 180 16T97 95T68 211H141Q141 168 160 132T216 74T307 52Q383 52 423 89T463 176Q463 216 447 243T390 293T279 336Q178 367 132 416T86 541Q86 589 111 627T184 689T302 712Q368 712 416 687T491 619T518
520H446Q446 550 430 579T382 628T298 648Q238 648 198 620T158 540Q158 504 174 479T229 434T336 390Q401 368 445 342T512 277T535 180Q535 124 506 81T425 13T307 -12Z" />
<glyph unicode="T" glyph-name="T" d="M265 0V636H77V700H523V636H335V0H265Z" />
<glyph unicode="U" glyph-name="U" d="M300 -12Q231 -12 177 17T91 106T60 255V700H130V254Q130 157 177 105T301 52Q377 52 423 104T470 254V700H540V255Q540 165 509 106T424 18T300 -12Z" />
<glyph unicode="V" glyph-name="V" d="M258 0L30 700H106L300 90L494 700H570L342 0H258Z" />
<glyph unicode="W" glyph-name="W" d="M116 0L3 700H76L156 141L263 700H337L444 141L524 700H597L484 0H405L300 566L195 0H116Z" />
<glyph unicode="X" glyph-name="X" d="M48 0L260 349L48 700H128L302 412L472 700H552L340 350L551 0H472L297 288L128 0H48Z" />
<glyph unicode="Y" glyph-name="Y" d="M265 0V280L40 700H119L300 349L481 700H560L335 280V0H265Z" />
<glyph unicode="Z" glyph-name="Z" d="M73 0V58L443 636H79V700H523V642L153 64H528V0H73Z" />
<glyph unicode="[" glyph-name="bracketleft" d="M260 -185Q220 -185 198 -163T176 -101V727Q176 768 198 789T260 811H420V749H262Q242 749 242 729V-102Q242 -122 262 -122H420V-185H260Z" />
<glyph unicode="\" glyph-name="backslash" d="M437 -90L90 760H164L510 -90H437Z" />
<glyph unicode="]" glyph-name="bracketright" d="M180 -185V-122H338Q358 -122 358 -102V729Q358 749 338 749H180V811H340Q381 811 402 790T424 727V-101Q424 -141 403 -163T340 -185H180Z" />
<glyph unicode="^" glyph-name="asciicircum" d="M64 381L269 700H331L536 381H461L302 633H298L138 381H64Z" />
<glyph unicode="_" glyph-name="underscore" d="M80 -65V0H520V-65H80Z" />
<glyph unicode="`" glyph-name="grave" d="M403 538L197 643V720L403 610V538Z" />
<glyph unicode="a" glyph-name="a" d="M260 -12Q201 -12 163 9T106 65T87 141Q87 219 144 257T290 296H432V305Q432 375 399 410T303 446Q251 446 218 424T175 353H101Q106 403 134 437T207 490T303 508Q407 508 454 452T502 305V0H442L435 80H429Q407 43 368
16T260 -12ZM271 52Q321 52 357 77T412 142T432 226V236H295Q221 236 191 210T160 143Q160 101 188 77T271 52Z" />
<glyph unicode="b" glyph-name="b" d="M311 -12Q253 -12 213 12T153 78H147L137 0H83V720H153V420Q173 455 214 481T311 508Q376 508 425 478T502 390T530 249Q530 166 502 108T425 19T311 -12ZM306 54Q373 54 416 102T459 248Q459 346 416 394T306 442Q239 442
196 394T153 248Q153 150 196 102T306 54Z" />
<glyph unicode="c" glyph-name="c" d="M308 -12Q244 -12 192 18T109 107T78 248Q78 331 109 389T193 477T308 508Q399 508 451 463T519 344H449Q436 389 400 415T308 442Q267 442 231 421T173 358T150 248Q150 182 172 139T231 74T308 53Q367 53 402 80T449 152H519Q501
75 447 32T308 -12Z" />
<glyph unicode="d" glyph-name="d" d="M289 -12Q225 -12 176 18T98 107T70 249Q70 332 98 390T175 478T289 508Q350 508 389 484T447 420V720H517V0H463L453 79H447Q428 37 388 13T289 -12ZM294 54Q361 54 404 102T447 248Q447 346 404 394T294 442Q227 442 184
394T141 248Q141 150 184 102T294 54Z" />
<glyph unicode="e" glyph-name="e" d="M305 -12Q236 -12 183 20T100 111T69 249Q69 328 99 386T182 476T307 508Q379 508 429 476T505 391T531 279Q531 269 531 258T530 233H137Q140 172 164 133T226 74T305 54Q366 54 399 79T449 149H517Q501 82 449 35T305 -12ZM304
444Q241 444 194 405T138 297H463Q459 367 416 405T304 444Z" />
<glyph unicode="f" glyph-name="f" d="M107 -220V-154H155Q194 -154 211 -138T228 -82V436H107V496H228V582Q228 655 262 687T370 720H489V654H371Q332 654 315 638T298 582V496H489V436H298V-82Q298 -155 264 -187T156 -220H107Z" />
<glyph unicode="g" glyph-name="g" d="M292 148Q263 148 239 154T194 170L155 121Q144 106 149 91T179 76H310Q400 76 456 44T512 -66Q512 -109 490 -147T419 -208T294 -232Q190 -232 128 -193T66 -74Q66 -43 81 -19T119 25Q89 42 82 77T102 148L148 205Q100 255
100 328Q100 376 122 417T188 483T292 508Q332 508 366 496H551V438L453 435V429Q483 385 483 328Q483 281 461 240T396 173T292 148ZM292 212Q345 212 378 242T412 328Q412 384 379 414T292 444Q240 444 206 414T171 328Q171 273 205 243T292 212ZM138 -74Q138
-120 181 -144T294 -168Q357 -168 398 -141T440 -69Q440 -46 428 -28T385 2T299 14H187Q138 -19 138 -74Z" />
<glyph unicode="h" glyph-name="h" d="M90 0V720H160V421Q180 459 227 483T329 508Q420 508 467 453T514 303V0H444V295Q444 364 410 403T314 442Q273 442 238 423T181 368T160 277V0H90Z" />
<glyph unicode="i" glyph-name="i" d="M296 592Q271 592 253 610T234 654Q234 680 252 698T296 716Q322 716 340 698T358 654Q358 629 340 611T296 592ZM105 0V60H265V416Q265 436 245 436H125V496H265Q335 496 335 426V60H495V0H105Z" />
<glyph unicode="j" glyph-name="j" d="M315 592Q290 592 272 610T253 654Q253 680 271 698T315 716Q341 716 359 698T377 654Q377 629 359 611T315 592ZM64 -220V-160H264Q284 -160 284 -140V416Q284 436 264 436H144V496H284Q354 496 354 426V-150Q354 -220 284
-220H64Z" />
<glyph unicode="k" glyph-name="k" d="M120 0V720H190V285L407 496H497L268 275V269L524 0H437L190 260V0H120Z" />
<glyph unicode="l" glyph-name="l" d="M80 0V60H250V640Q250 660 230 660H100V720H250Q320 720 320 650V60H490V0H80Z" />
<glyph unicode="m" glyph-name="m" d="M45 0V496H102L111 438H115Q129 467 155 487T219 508Q259 508 284 489T323 438H326Q340 467 369 487T439 508Q498 508 526 469T555 365V0H485V357Q485 397 470 419T419 442Q383 442 359 415T335 337V0H265V357Q265 397 250
419T199 442Q163 442 139 415T115 337V0H45Z" />
<glyph unicode="n" glyph-name="n" d="M94 0V496H151L160 421H164Q184 456 227 482T329 508Q420 508 465 455T510 303V0H440V295Q440 364 409 403T314 442Q252 442 208 400T164 277V0H94Z" />
<glyph unicode="o" glyph-name="o" d="M300 -12Q231 -12 178 20T95 110T65 248Q65 328 95 386T178 476T300 508Q369 508 422 476T505 386T535 248Q535 169 505 111T422 20T300 -12ZM300 54Q346 54 382 75T441 139T463 248Q463 315 441 357T383 421T300 442Q255
442 218 421T159 358T137 248Q137 182 159 139T218 75T300 54Z" />
<glyph unicode="p" glyph-name="p" d="M83 -220V496H137L147 410H153Q172 452 215 480T316 508Q378 508 426 478T502 389T530 247Q530 164 502 106T425 18T311 -12Q252 -12 211 14T153 76V-220H83ZM306 54Q373 54 416 102T459 248Q459 346 416 394T306 442Q239
442 196 394T153 248Q153 150 196 102T306 54Z" />
<glyph unicode="q" glyph-name="q" d="M447 -220V80Q427 42 390 15T289 -12Q225 -12 176 18T98 106T70 247Q70 330 98 388T174 477T284 508Q344 508 385 482T447 416H453L463 496H517V-220H447ZM294 54Q361 54 404 102T447 248Q447 346 404 394T294 442Q227 442
184 394T141 248Q141 150 184 102T294 54Z" />
<glyph unicode="r" glyph-name="r" d="M88 0V60H220V416Q220 424 214 430T200 436H103V496H225Q254 496 270 481T286 437V409H290Q301 456 333 482T418 508H518V434H418Q357 434 324 394T290 287V60H447V0H88Z" />
<glyph unicode="s" glyph-name="s" d="M306 -12Q213 -12 154 32T88 154H161Q167 110 205 81T308 52Q370 52 399 79T428 140Q428 186 394 202T288 226Q207 235 156 268T105 369Q105 428 155 468T292 508Q378 508 427 470T483 357H412Q410 396 376 420T290 444Q236
444 207 425T177 370Q177 339 209 318T311 289Q363 284 405 271T474 227T500 143Q501 99 476 64T408 8T306 -12Z" />
<glyph unicode="t" glyph-name="t" d="M351 0Q286 0 250 31T213 145V436H87V496H162Q214 496 221 546L233 621H283V496H483V436H283V145Q283 100 303 82T375 64H483V0H351Z" />
<glyph unicode="u" glyph-name="u" d="M271 -12Q180 -12 135 41T90 193V496H160V201Q160 132 191 93T286 54Q348 54 392 96T436 219V496H506V0H449L440 75H436Q416 40 373 14T271 -12Z" />
<glyph unicode="v" glyph-name="v" d="M260 0L40 496H122L300 80L479 496H560L339 0H260Z" />
<glyph unicode="w" glyph-name="w" d="M129 0L17 496H88L166 111L260 496H340L434 111L512 496H583L471 0H400L300 402L200 0H129Z" />
<glyph unicode="x" glyph-name="x" d="M81 0L250 248L78 496H156L300 286L444 496H522L350 248L519 0H442L300 211L158 0H81Z" />
<glyph unicode="y" glyph-name="y" d="M152 -220L277 53H249L50 496H126L298 98L481 496H553L225 -220H152Z" />
<glyph unicode="z" glyph-name="z" d="M107 0V66L410 430H112V496H488V430L185 66H493V0H107Z" />
<glyph unicode="{" glyph-name="braceleft" d="M392 -185Q321 -185 280 -152T239 -40Q239 -2 244 28T255 96T261 187Q261 231 239 256T166 282H118V344H166Q216 344 238 369T261 439Q261 494 256 530T245 598T239 666Q239 744 280 777T392 811H484V749H396Q353
749 330 729T307 661Q307 617 312 586T323 525T329 449Q329 397 307 363T247 315V311Q284 298 306 264T329 177Q329 133 324 102T313 41T307 -35Q307 -83 330 -103T396 -123H484V-185H392Z" />
<glyph unicode="|" glyph-name="bar" d="M265 -270V720H335V-270H265Z" />
<glyph unicode="}" glyph-name="braceright" d="M116 -185V-123H204Q247 -123 270 -103T293 -35Q293 10 288 40T277 102T271 177Q271 230 293 264T353 311V315Q316 329 294 363T271 449Q271 494 276 524T287 586T293 661Q293 709 270 729T204 749H116V811H208Q279
811 320 778T361 666Q361 629 356 598T345 531T339 439Q339 395 362 370T434 344H482V282H434Q385 282 362 257T339 187Q339 133 344 96T355 29T361 -40Q361 -118 320 -151T208 -185H116Z" />
<glyph unicode="~" glyph-name="asciitilde" d="M387 256Q358 256 335 266T290 289T249 313T208 323Q183 323 168 305T148 257H89Q101 386 213 386Q242 386 265 376T310 353T351 329T392 319Q417 319 432 337T452 385H511Q499 256 387 256Z" />
<glyph unicode="&#xa0;" glyph-name="uni00A0" />
<glyph unicode="&#xa1;" glyph-name="exclamdown" d="M300 376Q273 376 254 395T234 442Q234 469 253 488T300 508Q327 508 346 489T366 442Q366 415 347 396T300 376ZM258 -220L267 263H334L342 -220H258Z" />
<glyph unicode="&#xa2;" glyph-name="cent" d="M276 0V93Q221 101 178 133T109 220T83 350Q83 425 108 479T178 566T276 607V700H344V608Q421 601 465 558T524 446H454Q443 484 415 509T344 542V157Q389 164 416 190T454 254H524Q508 184 462 142T344 92V0H276ZM155
350Q155 266 190 219T276 159V540Q226 528 191 481T155 350Z" />
<glyph unicode="&#xa3;" glyph-name="sterling" d="M90 0V47Q127 89 150 128T174 223Q174 245 170 265T160 304H46V364H138Q125 396 115 430T104 509Q104 570 131 615T207 686T319 712Q388 712 434 686T505 614T532 510H462Q458 569 422 608T319 648Q283 648 250
634T195 588T174 506Q174 468 185 433T208 364H404V304H230Q235 286 238 268T242 231Q242 180 226 142T180 68V64H533V0H90Z" />
<glyph unicode="&#xa4;" glyph-name="currency" d="M137 95L98 134L158 194Q129 238 129 297Q129 355 158 399L97 460L137 500L197 440Q242 472 300 472Q358 472 402 439L463 499L502 460L441 399Q471 354 471 297Q471 268 463 243T441 196L503 134L463 94L402
155Q357 122 300 122Q240 122 196 154L137 95ZM300 180Q326 180 351 193T394 232T411 297Q411 336 395 362T353 401T300 414Q257 414 223 385T189 297Q189 239 223 210T300 180Z" />
<glyph unicode="&#xa5;" glyph-name="yen" d="M85 165V225H265V280L247 314H85V374H215L40 700H119L300 349L481 700H560L385 374H515V314H353L335 280V225H515V165H335V0H265V165H85Z" />
<glyph unicode="&#xa6;" glyph-name="brokenbar" d="M265 306V720H335V306H265ZM265 -270V144H335V-270H265Z" />
<glyph unicode="&#xa7;" glyph-name="section" d="M298 -232Q233 -232 184 -207T109 -139T82 -40H154Q154 -70 170 -99T218 -148T302 -168Q362 -168 402 -140T442 -60Q442 -24 426 0T372 46T264 90Q200 112 156 137T88 198T65 289Q65 329 81 363T126 423Q86 470
86 541Q86 589 111 627T184 689T302 712Q368 712 416 687T491 619T518 520H446Q446 550 430 579T382 628T298 648Q238 648 198 620T158 540Q158 504 174 479T229 434T336 390Q401 368 445 342T512 280T535 187Q535 149 519 116T474 57Q514 10 514 -61Q514 -108
489 -147T416 -209T298 -232ZM321 144Q382 125 423 100Q463 135 463 183Q463 221 446 247T389 294T279 336Q218 354 178 380Q137 344 137 293Q137 256 154 231T211 186T321 144Z" />
<glyph unicode="&#xa8;" glyph-name="dieresis" d="M390 565Q367 565 352 581T336 619Q336 641 351 657T390 673Q412 673 427 657T442 619Q442 597 427 581T390 565ZM212 565Q189 565 174 581T158 619Q158 641 173 657T212 673Q234 673 249 657T265 619Q265 597
250 581T212 565Z" />
<glyph unicode="&#xa9;" glyph-name="copyright" d="M300 60Q218 60 152 98T48 202T10 350Q10 433 48 498T152 602T300 640Q383 640 448 602T552 499T590 350Q590 268 552 202T449 98T300 60ZM300 105Q370 105 424 137T511 224T543 350Q543 421 511 476T425 563T300
595Q231 595 176 563T89 476T57 350Q57 280 89 225T176 137T300 105ZM299 170Q232 170 186 217T140 350Q140 408 162 448T220 509T299 530Q362 530 398 499T445 416H394Q384 448 361 466T299 484Q256 484 223 452T190 350Q190 281 223 248T299 215Q340 215 364
234T397 284H445Q433 230 396 200T299 170Z" />
<glyph unicode="&#xaa;" glyph-name="ordfeminine" d="M267 290Q196 290 162 326T127 412Q127 473 172 504T290 536H400V544Q400 649 303 649Q265 649 239 632T205 579H137Q145 642 193 674T303 706Q389 706 427 662T466 544V300H409L403 362H398Q381 333 351
312T267 290ZM278 348Q317 348 344 367T386 417T400 483V484H295Q241 484 219 465T196 415Q196 384 217 366T278 348Z" />
<glyph unicode="&#xab;" glyph-name="guillemotleft" d="M401 100L286 295L401 490H476L366 297V293L476 100H401ZM487 100L372 295L487 490H562L452 297V293L562 100H487Z" />
<glyph unicode="&#xac;" glyph-name="logicalnot" d="M456 130V318H80V382H520V130H456Z" />
<glyph unicode="&#xad;" glyph-name="uni00AD" d="M140 320V380H460V320H140Z" />
<glyph unicode="&#xae;" glyph-name="registered" d="M300 60Q218 60 152 98T48 202T10 350Q10 433 48 498T152 602T300 640Q383 640 448 602T552 499T590 350Q590 268 552 202T449 98T300 60ZM300 105Q370 105 424 137T511 224T543 350Q543 421 511 476T425 563T300
595Q231 595 176 563T89 476T57 350Q57 280 89 225T176 137T300 105ZM195 175V525H302Q362 525 391 497T420 424Q420 390 403 365T351 329L430 175H374L301 322H245V175H195ZM245 368H301Q338 368 355 384T372 424Q372 449 356 464T301 479H245V368Z" />
<glyph unicode="&#xaf;" glyph-name="overscore" d="M141 600V658H459V600H141Z" />
<glyph unicode="&#xb0;" glyph-name="degree" d="M300 426Q261 426 229 443T177 493T157 568Q157 612 176 644T228 694T300 712Q339 712 371 694T423 644T443 568Q443 525 424 493T372 444T300 426ZM300 480Q334 480 359 504T385 569Q385 610 360 634T300 658Q266
658 241 634T215 569Q215 528 240 504T300 480Z" />
<glyph unicode="&#xb1;" glyph-name="plusminus" d="M268 180V318H80V382H268V520H332V382H520V318H332V180H268ZM80 0V64H520V0H80Z" />
<glyph unicode="&#xb2;" glyph-name="uni00B2" d="M166 280V326Q229 376 276 418T350 499T376 579Q376 614 357 634T304 655Q265 655 244 631T223 573H167Q168 638 207 672T304 707Q366 707 401 673T436 581Q436 532 409 488T339 405T253 331H447V280H166Z" />
<glyph unicode="&#xb3;" glyph-name="uni00B3" d="M304 273Q242 273 200 308T155 407H213Q215 373 239 350T304 326Q345 326 368 347T391 404Q391 442 363 460T294 478H257V530H289Q373 530 373 594Q373 620 355 637T304 654Q272 654 251 636T227 588H169Q172
644 210 675T304 707Q366 707 399 676T432 599Q432 568 413 545T368 512V508Q404 498 426 472T449 402Q449 349 411 311T304 273Z" />
<glyph unicode="&#xb4;" glyph-name="acute" d="M197 538V610L403 720V643L197 538Z" />
<glyph unicode="&#xb5;" glyph-name="uni00B5" d="M90 -220V496H160V201Q160 132 191 93T286 54Q348 54 392 96T436 219V496H506V0H449L440 75H436Q416 40 373 14T276 -12Q196 -12 160 37V-220H90Z" />
<glyph unicode="&#xb6;" glyph-name="paragraph" d="M306 -100V299H298Q217 299 165 325T88 397T62 499Q62 557 87 602T165 673T298 700H518V-100H452V640H372V-100H306Z" />
<glyph unicode="&#xb7;" glyph-name="middot" d="M300 284Q273 284 254 303T234 350Q234 377 253 396T300 416Q327 416 346 397T366 350Q366 323 347 304T300 284Z" />
<glyph unicode="&#xb8;" glyph-name="cedilla" d="M243 -258V-211H336Q367 -211 384 -198T401 -160Q401 -137 384 -125T336 -112H283V7H332V-67H345Q396 -67 428 -90T460 -160Q460 -206 428 -232T343 -258H243Z" />
<glyph unicode="&#xb9;" glyph-name="uni00B9" d="M160 280V332H266V632L165 613V659L287 700H324V332H437V280H160Z" />
<glyph unicode="&#xba;" glyph-name="ordmasculine" d="M300 290Q244 290 201 316T133 388T108 498Q108 562 132 608T200 680T300 706Q356 706 399 681T466 609T491 498Q491 435 467 389T399 316T300 290ZM300 353Q350 353 387 388T424 498Q424 572 388 607T300
643Q249 643 212 608T175 498Q175 425 212 389T300 353Z" />
<glyph unicode="&#xbb;" glyph-name="guillemotright" d="M294 100L404 293V297L294 490H369L484 295L369 100H294ZM380 100L490 293V297L380 490H455L570 295L455 100H380Z" />
<glyph unicode="&#xbc;" glyph-name="onequarter" d="M201 417V470H271V629L204 619V670L298 699H332V470H409V417H201ZM107 326V378H493V326H107ZM306 -1V51H166V100L295 281H367V105H400V51H367V-1H306ZM232 105H310V216L232 105Z" />
<glyph unicode="&#xbd;" glyph-name="onehalf" d="M201 417V470H271V629L204 619V670L298 699H332V470H409V417H201ZM107 326V378H493V326H107ZM196 0V48Q258 92 298 126T338 195Q338 212 328 222T301 232Q277 232 266 220T255 191H197Q201 241 231 263T301 286Q348
286 374 263T400 200Q400 169 382 142T336 91T282 50H408V0H196Z" />
<glyph unicode="&#xbe;" glyph-name="threequarters" d="M300 413Q255 413 223 437T189 507H248Q250 487 265 478T301 468Q324 468 337 477T350 502Q350 522 334 530T293 539H265V590H288Q308 590 322 596T337 620Q337 649 299 649Q280 649 268 640T255 617H196Q198
658 226 681T299 704Q349 704 373 683T397 627Q397 607 384 593T354 572V570Q377 564 393 547T409 499Q409 465 381 439T300 413ZM107 326V378H493V326H107ZM306 0V51H166V100L295 281H367V105H400V51H367V0H306ZM232 105H310V216L232 105Z" />
<glyph unicode="&#xbf;" glyph-name="questiondown" d="M322 376Q295 376 276 395T256 442Q256 469 275 488T322 508Q349 508 368 489T388 442Q388 415 369 396T322 376ZM288 -232Q225 -232 177 -208T102 -137T74 -28Q74 47 105 91T185 156T288 181L291 302H351L355
131H329Q245 131 194 96T142 -28Q142 -95 181 -131T288 -168Q353 -168 392 -132T436 -34H503Q501 -92 473 -137T398 -207T288 -232Z" />
<glyph unicode="&#xc0;" glyph-name="Agrave" d="M36 0L261 700H340L564 0H487L432 178H168L113 0H36ZM298 602L186 238H414L302 602H298ZM353 742L147 847V924L353 814V742Z" />
<glyph unicode="&#xc1;" glyph-name="Aacute" d="M36 0L261 700H340L564 0H487L432 178H168L113 0H36ZM298 602L186 238H414L302 602H298ZM247 742V814L453 924V847L247 742Z" />
<glyph unicode="&#xc2;" glyph-name="Acircumflex" d="M36 0L261 700H340L564 0H487L432 178H168L113 0H36ZM298 602L186 238H414L302 602H298ZM166 758V824L300 904L434 824V758L302 837H298L166 758Z" />
<glyph unicode="&#xc3;" glyph-name="Atilde" d="M36 0L261 700H340L564 0H487L432 178H168L113 0H36ZM298 602L186 238H414L302 602H298ZM359 786Q331 786 313 796T279 817T242 827Q226 827 215 818T200 788H151Q153 834 178 857T240 881Q268 881 286 871T320
851T357 840Q395 840 401 879H449Q449 835 423 811T359 786Z" />
<glyph unicode="&#xc4;" glyph-name="Adieresis" d="M36 0L261 700H340L564 0H487L432 178H168L113 0H36ZM298 602L186 238H414L302 602H298ZM390 769Q367 769 352 785T336 823Q336 845 351 861T390 877Q412 877 427 861T442 823Q442 801 427 785T390 769ZM212
769Q189 769 174 785T158 823Q158 845 173 861T212 877Q234 877 249 861T265 823Q265 801 250 785T212 769Z" />
<glyph unicode="&#xc5;" glyph-name="Aring" d="M36 0L261 700H340L564 0H487L432 178H168L113 0H36ZM298 602L186 238H414L302 602H298ZM300 764Q258 764 228 791T198 864Q198 910 228 937T300 964Q342 964 372 937T402 864Q402 818 372 791T300 764ZM300 804Q325
804 341 820T358 864Q358 893 342 908T300 924Q276 924 259 909T242 864Q242 836 259 820T300 804Z" />
<glyph unicode="&#xc6;" glyph-name="AE" d="M4 0L244 700H588V636H374V384H558V320H374V64H588V0H304V178H140L81 0H4ZM291 636L160 238H304V636H291Z" />
<glyph unicode="&#xc7;" glyph-name="Ccedilla" d="M307 -12Q224 -12 163 32T68 158T35 350Q35 461 68 542T162 667T307 712Q412 712 477 654T554 500H476Q466 562 423 604T307 646Q215 646 161 568T107 350Q107 211 161 133T307 54Q383 54 424 94T476 198H554Q538
101 475 45T307 -12ZM498 -258V-211H591Q622 -211 639 -198T656 -160Q656 -137 639 -125T591 -112H538V7H587V-67H600Q651 -67 683 -90T715 -160Q715 -206 683 -232T598 -258H498Z" />
<glyph unicode="&#xc8;" glyph-name="Egrave" d="M89 0V700H520V636H159V384H490V320H159V64H520V0H89ZM358 742L152 847V924L358 814V742Z" />
<glyph unicode="&#xc9;" glyph-name="Eacute" d="M89 0V700H520V636H159V384H490V320H159V64H520V0H89ZM252 742V814L458 924V847L252 742Z" />
<glyph unicode="&#xca;" glyph-name="Ecircumflex" d="M89 0V700H520V636H159V384H490V320H159V64H520V0H89ZM171 758V824L305 904L439 824V758L307 837H303L171 758Z" />
<glyph unicode="&#xcb;" glyph-name="Edieresis" d="M89 0V700H520V636H159V384H490V320H159V64H520V0H89ZM395 769Q372 769 357 785T341 823Q341 845 356 861T395 877Q417 877 432 861T447 823Q447 801 432 785T395 769ZM217 769Q194 769 179 785T163 823Q163
845 178 861T217 877Q239 877 254 861T270 823Q270 801 255 785T217 769Z" />
<glyph unicode="&#xcc;" glyph-name="Igrave" d="M101 0V60H265V640H101V700H499V640H335V60H499V0H101ZM353 742L147 847V924L353 814V742Z" />
<glyph unicode="&#xcd;" glyph-name="Iacute" d="M101 0V60H265V640H101V700H499V640H335V60H499V0H101ZM247 742V814L453 924V847L247 742Z" />
<glyph unicode="&#xce;" glyph-name="Icircumflex" d="M101 0V60H265V640H101V700H499V640H335V60H499V0H101ZM166 758V824L300 904L434 824V758L302 837H298L166 758Z" />
<glyph unicode="&#xcf;" glyph-name="Idieresis" d="M101 0V60H265V640H101V700H499V640H335V60H499V0H101ZM390 769Q367 769 352 785T336 823Q336 845 351 861T390 877Q412 877 427 861T442 823Q442 801 427 785T390 769ZM212 769Q189 769 174 785T158 823Q158
845 173 861T212 877Q234 877 249 861T265 823Q265 801 250 785T212 769Z" />
<glyph unicode="&#xd0;" glyph-name="Eth" d="M92 0V319H9V381H92V700H205Q322 700 397 658T508 537T545 350Q545 242 509 164T397 43T205 0H92ZM162 64H205Q304 64 362 99T447 199T473 350Q473 437 447 501T363 601T205 636H162V381H309V319H162V64Z" />
<glyph unicode="&#xd1;" glyph-name="Ntilde" d="M60 0V700H136L470 122V700H540V0H464L130 579V0H60ZM359 786Q331 786 313 796T279 817T242 827Q226 827 215 818T200 788H151Q153 834 178 857T240 881Q268 881 286 871T320 851T357 840Q395 840 401 879H449Q449
835 423 811T359 786Z" />
<glyph unicode="&#xd2;" glyph-name="Ograve" d="M300 -12Q216 -12 156 33T63 160T30 350Q30 457 62 538T155 666T300 712Q385 712 445 666T537 539T570 350Q570 242 538 161T445 34T300 -12ZM300 54Q389 54 443 131T498 350Q498 491 444 568T300 646Q212 646
157 569T102 350Q102 209 157 132T300 54ZM353 742L147 847V924L353 814V742Z" />
<glyph unicode="&#xd3;" glyph-name="Oacute" d="M300 -12Q216 -12 156 33T63 160T30 350Q30 457 62 538T155 666T300 712Q385 712 445 666T537 539T570 350Q570 242 538 161T445 34T300 -12ZM300 54Q389 54 443 131T498 350Q498 491 444 568T300 646Q212 646
157 569T102 350Q102 209 157 132T300 54ZM247 742V814L453 924V847L247 742Z" />
<glyph unicode="&#xd4;" glyph-name="Ocircumflex" d="M300 -12Q216 -12 156 33T63 160T30 350Q30 457 62 538T155 666T300 712Q385 712 445 666T537 539T570 350Q570 242 538 161T445 34T300 -12ZM300 54Q389 54 443 131T498 350Q498 491 444 568T300 646Q212
646 157 569T102 350Q102 209 157 132T300 54ZM166 758V824L300 904L434 824V758L302 837H298L166 758Z" />
<glyph unicode="&#xd5;" glyph-name="Otilde" d="M300 -12Q216 -12 156 33T63 160T30 350Q30 457 62 538T155 666T300 712Q385 712 445 666T537 539T570 350Q570 242 538 161T445 34T300 -12ZM300 54Q389 54 443 131T498 350Q498 491 444 568T300 646Q212 646
157 569T102 350Q102 209 157 132T300 54ZM359 786Q331 786 313 796T279 817T242 827Q226 827 215 818T200 788H151Q153 834 178 857T240 881Q268 881 286 871T320 851T357 840Q395 840 401 879H449Q449 835 423 811T359 786Z" />
<glyph unicode="&#xd6;" glyph-name="Odieresis" d="M300 -12Q216 -12 156 33T63 160T30 350Q30 457 62 538T155 666T300 712Q385 712 445 666T537 539T570 350Q570 242 538 161T445 34T300 -12ZM300 54Q389 54 443 131T498 350Q498 491 444 568T300 646Q212 646
157 569T102 350Q102 209 157 132T300 54ZM390 769Q367 769 352 785T336 823Q336 845 351 861T390 877Q412 877 427 861T442 823Q442 801 427 785T390 769ZM212 769Q189 769 174 785T158 823Q158 845 173 861T212 877Q234 877 249 861T265 823Q265 801 250 785T212
769Z" />
<glyph unicode="&#xd7;" glyph-name="multiply" d="M139 144L94 189L255 350L94 511L139 556L300 395L461 556L506 511L345 350L506 189L461 144L300 305L139 144Z" />
<glyph unicode="&#xd8;" glyph-name="Oslash" d="M29 -20L99 91Q30 189 30 350Q30 457 62 538T155 666T300 712Q346 712 385 698T457 656L497 720H572L501 608Q570 509 570 350Q570 242 538 161T445 34T300 -12Q254 -12 215 2T144 42L105 -20H29ZM102 350Q102
291 112 243T141 157L419 597Q370 646 300 646Q212 646 157 569T102 350ZM300 54Q389 54 443 131T498 350Q498 409 488 457T459 541L182 102Q231 54 300 54Z" />
<glyph unicode="&#xd9;" glyph-name="Ugrave" d="M300 -12Q231 -12 177 17T91 106T60 255V700H130V254Q130 157 177 105T301 52Q377 52 423 104T470 254V700H540V255Q540 165 509 106T424 18T300 -12ZM353 742L147 847V924L353 814V742Z" />
<glyph unicode="&#xda;" glyph-name="Uacute" d="M300 -12Q231 -12 177 17T91 106T60 255V700H130V254Q130 157 177 105T301 52Q377 52 423 104T470 254V700H540V255Q540 165 509 106T424 18T300 -12ZM247 742V814L453 924V847L247 742Z" />
<glyph unicode="&#xdb;" glyph-name="Ucircumflex" d="M300 -12Q231 -12 177 17T91 106T60 255V700H130V254Q130 157 177 105T301 52Q377 52 423 104T470 254V700H540V255Q540 165 509 106T424 18T300 -12ZM166 758V824L300 904L434 824V758L302 837H298L166 758Z" />
<glyph unicode="&#xdc;" glyph-name="Udieresis" d="M300 -12Q231 -12 177 17T91 106T60 255V700H130V254Q130 157 177 105T301 52Q377 52 423 104T470 254V700H540V255Q540 165 509 106T424 18T300 -12ZM390 769Q367 769 352 785T336 823Q336 845 351 861T390
877Q412 877 427 861T442 823Q442 801 427 785T390 769ZM212 769Q189 769 174 785T158 823Q158 845 173 861T212 877Q234 877 249 861T265 823Q265 801 250 785T212 769Z" />
<glyph unicode="&#xdd;" glyph-name="Yacute" d="M265 0V280L40 700H119L300 349L481 700H560L335 280V0H265ZM247 742V814L453 924V847L247 742Z" />
<glyph unicode="&#xde;" glyph-name="Thorn" d="M76 0V700H146V561H306Q387 561 437 532T510 454T533 350Q533 295 510 247T437 169T306 139H146V0H76ZM146 203H306Q383 203 422 244T461 350Q461 415 422 456T306 497H146V203Z" />
<glyph unicode="&#xdf;" glyph-name="germandbls" d="M389 -12Q304 -12 256 35T202 167H277Q281 115 309 84T389 52Q440 52 468 79T497 150Q497 195 475 220T401 261Q348 278 314 307T280 387Q280 413 291 431T320 462T354 488T382 517T394 556Q394 602 362 629T273
656Q206 656 174 616T142 504V0H72V512Q72 572 94 619T161 693T274 720Q367 720 415 674T464 561Q464 527 453 506T425 470T391 444T363 420T351 388Q351 363 369 348T443 314Q505 294 537 257T569 155Q569 109 548 71T486 11T389 -12Z" />
<glyph unicode="&#xe0;" glyph-name="agrave" d="M260 -12Q201 -12 163 9T106 65T87 141Q87 219 144 257T290 296H432V305Q432 375 399 410T303 446Q251 446 218 424T175 353H101Q106 403 134 437T207 490T303 508Q407 508 454 452T502 305V0H442L435 80H429Q407
43 368 16T260 -12ZM271 52Q321 52 357 77T412 142T432 226V236H295Q221 236 191 210T160 143Q160 101 188 77T271 52ZM612 538L406 643V720L612 610V538Z" />
<glyph unicode="&#xe1;" glyph-name="aacute" d="M260 -12Q201 -12 163 9T106 65T87 141Q87 219 144 257T290 296H432V305Q432 375 399 410T303 446Q251 446 218 424T175 353H101Q106 403 134 437T207 490T303 508Q407 508 454 452T502 305V0H442L435 80H429Q407
43 368 16T260 -12ZM271 52Q321 52 357 77T412 142T432 226V236H295Q221 236 191 210T160 143Q160 101 188 77T271 52ZM250 538V610L456 720V643L250 538Z" />
<glyph unicode="&#xe2;" glyph-name="acircumflex" d="M260 -12Q201 -12 163 9T106 65T87 141Q87 219 144 257T290 296H432V305Q432 375 399 410T303 446Q251 446 218 424T175 353H101Q106 403 134 437T207 490T303 508Q407 508 454 452T502 305V0H442L435 80H429Q407
43 368 16T260 -12ZM271 52Q321 52 357 77T412 142T432 226V236H295Q221 236 191 210T160 143Q160 101 188 77T271 52ZM169 554V620L303 700L437 620V554L305 633H301L169 554Z" />
<glyph unicode="&#xe3;" glyph-name="atilde" d="M260 -12Q201 -12 163 9T106 65T87 141Q87 219 144 257T290 296H432V305Q432 375 399 410T303 446Q251 446 218 424T175 353H101Q106 403 134 437T207 490T303 508Q407 508 454 452T502 305V0H442L435 80H429Q407
43 368 16T260 -12ZM271 52Q321 52 357 77T412 142T432 226V236H295Q221 236 191 210T160 143Q160 101 188 77T271 52ZM362 582Q334 582 316 592T282 613T245 623Q229 623 218 614T203 584H154Q156 630 181 653T243 677Q271 677 289 667T323 647T360 636Q398 636
404 675H452Q452 631 426 607T362 582Z" />
<glyph unicode="&#xe4;" glyph-name="adieresis" d="M260 -12Q201 -12 163 9T106 65T87 141Q87 219 144 257T290 296H432V305Q432 375 399 410T303 446Q251 446 218 424T175 353H101Q106 403 134 437T207 490T303 508Q407 508 454 452T502 305V0H442L435 80H429Q407
43 368 16T260 -12ZM271 52Q321 52 357 77T412 142T432 226V236H295Q221 236 191 210T160 143Q160 101 188 77T271 52ZM393 565Q370 565 355 581T339 619Q339 641 354 657T393 673Q415 673 430 657T445 619Q445 597 430 581T393 565ZM215 565Q192 565 177 581T161
619Q161 641 176 657T215 673Q237 673 252 657T268 619Q268 597 253 581T215 565Z" />
<glyph unicode="&#xe5;" glyph-name="aring" d="M260 -12Q201 -12 163 9T106 65T87 141Q87 219 144 257T290 296H432V305Q432 375 399 410T303 446Q251 446 218 424T175 353H101Q106 403 134 437T207 490T303 508Q407 508 454 452T502 305V0H442L435 80H429Q407
43 368 16T260 -12ZM271 52Q321 52 357 77T412 142T432 226V236H295Q221 236 191 210T160 143Q160 101 188 77T271 52ZM303 560Q261 560 231 587T201 660Q201 706 231 733T303 760Q345 760 375 733T405 660Q405 614 375 587T303 560ZM303 600Q328 600 344 616T361
660Q361 689 345 704T303 720Q279 720 262 705T245 660Q245 632 262 616T303 600Z" />
<glyph unicode="&#xe6;" glyph-name="ae" d="M158 -12Q114 -12 84 8T37 61T21 134Q21 189 45 225T112 279T206 297H264V348Q264 398 243 422T184 446Q153 446 133 425T110 363H39Q44 431 84 469T182 508Q232 508 263 488T308 432Q325 463 356 485T432 508Q585
508 585 283Q585 273 585 259T583 233H334Q336 142 364 98T429 54Q460 54 478 77T506 149H574Q566 82 529 35T424 -12Q375 -12 343 17T299 84H296Q280 37 240 13T158 -12ZM335 297H516Q514 367 493 405T429 444Q386 444 363 405T335 297ZM167 52Q208 52 236 83T264
176V233H209Q149 233 122 207T94 136Q94 97 112 75T167 52Z" />
<glyph unicode="&#xe7;" glyph-name="ccedilla" d="M308 -12Q244 -12 192 18T109 107T78 248Q78 331 109 389T193 477T308 508Q399 508 451 463T519 344H449Q436 389 400 415T308 442Q267 442 231 421T173 358T150 248Q150 182 172 139T231 74T308 53Q367 53 402
80T449 152H519Q501 75 447 32T308 -12ZM244 -258V-211H337Q368 -211 385 -198T402 -160Q402 -137 385 -125T337 -112H284V7H333V-67H346Q397 -67 429 -90T461 -160Q461 -206 429 -232T344 -258H244Z" />
<glyph unicode="&#xe8;" glyph-name="egrave" d="M305 -12Q236 -12 183 20T100 111T69 249Q69 328 99 386T182 476T307 508Q379 508 429 476T505 391T531 279Q531 269 531 258T530 233H137Q140 172 164 133T226 74T305 54Q366 54 399 79T449 149H517Q501 82 449
35T305 -12ZM304 444Q241 444 194 405T138 297H463Q459 367 416 405T304 444ZM615 538L409 643V720L615 610V538Z" />
<glyph unicode="&#xe9;" glyph-name="eacute" d="M305 -12Q236 -12 183 20T100 111T69 249Q69 328 99 386T182 476T307 508Q379 508 429 476T505 391T531 279Q531 269 531 258T530 233H137Q140 172 164 133T226 74T305 54Q366 54 399 79T449 149H517Q501 82 449
35T305 -12ZM304 444Q241 444 194 405T138 297H463Q459 367 416 405T304 444ZM253 538V610L459 720V643L253 538Z" />
<glyph unicode="&#xea;" glyph-name="ecircumflex" d="M305 -12Q236 -12 183 20T100 111T69 249Q69 328 99 386T182 476T307 508Q379 508 429 476T505 391T531 279Q531 269 531 258T530 233H137Q140 172 164 133T226 74T305 54Q366 54 399 79T449 149H517Q501
82 449 35T305 -12ZM304 444Q241 444 194 405T138 297H463Q459 367 416 405T304 444ZM172 554V620L306 700L440 620V554L308 633H304L172 554Z" />
<glyph unicode="&#xeb;" glyph-name="edieresis" d="M305 -12Q236 -12 183 20T100 111T69 249Q69 328 99 386T182 476T307 508Q379 508 429 476T505 391T531 279Q531 269 531 258T530 233H137Q140 172 164 133T226 74T305 54Q366 54 399 79T449 149H517Q501 82
449 35T305 -12ZM304 444Q241 444 194 405T138 297H463Q459 367 416 405T304 444ZM396 565Q373 565 358 581T342 619Q342 641 357 657T396 673Q418 673 433 657T448 619Q448 597 433 581T396 565ZM218 565Q195 565 180 581T164 619Q164 641 179 657T218 673Q240
673 255 657T271 619Q271 597 256 581T218 565Z" />
<glyph unicode="&#xec;" glyph-name="igrave" d="M105 0V60H265V416Q265 436 245 436H125V496H265Q335 496 335 426V60H495V0H105ZM609 538L403 643V720L609 610V538Z" />
<glyph unicode="&#xed;" glyph-name="iacute" d="M105 0V60H265V416Q265 436 245 436H125V496H265Q335 496 335 426V60H495V0H105ZM247 538V610L453 720V643L247 538Z" />
<glyph unicode="&#xee;" glyph-name="icircumflex" d="M105 0V60H265V416Q265 436 245 436H125V496H265Q335 496 335 426V60H495V0H105ZM166 554V620L300 700L434 620V554L302 633H298L166 554Z" />
<glyph unicode="&#xef;" glyph-name="idieresis" d="M105 0V60H265V416Q265 436 245 436H125V496H265Q335 496 335 426V60H495V0H105ZM390 565Q367 565 352 581T336 619Q336 641 351 657T390 673Q412 673 427 657T442 619Q442 597 427 581T390 565ZM212 565Q189
565 174 581T158 619Q158 641 173 657T212 673Q234 673 249 657T265 619Q265 597 250 581T212 565Z" />
<glyph unicode="&#xf0;" glyph-name="eth" d="M306 -12Q234 -12 180 23T95 117T64 247Q64 323 95 382T181 474T302 508Q352 508 396 488T471 419H475Q454 474 429 517T364 603L203 550V606L321 645Q284 678 230 720H323Q358 695 388 667L514 708V652L428 624Q489
552 520 463T552 266Q552 185 523 122T438 24T306 -12ZM308 52Q354 52 393 76T456 144T481 249Q481 309 457 352T393 420T308 444Q263 444 224 420T160 353T135 249Q135 189 159 145T223 76T308 52Z" />
<glyph unicode="&#xf1;" glyph-name="ntilde" d="M94 0V496H151L160 421H164Q184 456 227 482T329 508Q420 508 465 455T510 303V0H440V295Q440 364 409 403T314 442Q252 442 208 400T164 277V0H94ZM378 582Q350 582 332 592T298 613T261 623Q245 623 234 614T219
584H170Q172 630 197 653T259 677Q287 677 305 667T339 647T376 636Q414 636 420 675H468Q468 631 442 607T378 582Z" />
<glyph unicode="&#xf2;" glyph-name="ograve" d="M300 -12Q231 -12 178 20T95 110T65 248Q65 328 95 386T178 476T300 508Q369 508 422 476T505 386T535 248Q535 169 505 111T422 20T300 -12ZM300 54Q346 54 382 75T441 139T463 248Q463 315 441 357T383 421T300
442Q255 442 218 421T159 358T137 248Q137 182 159 139T218 75T300 54ZM609 538L403 643V720L609 610V538Z" />
<glyph unicode="&#xf3;" glyph-name="oacute" d="M300 -12Q231 -12 178 20T95 110T65 248Q65 328 95 386T178 476T300 508Q369 508 422 476T505 386T535 248Q535 169 505 111T422 20T300 -12ZM300 54Q346 54 382 75T441 139T463 248Q463 315 441 357T383 421T300
442Q255 442 218 421T159 358T137 248Q137 182 159 139T218 75T300 54ZM247 538V610L453 720V643L247 538Z" />
<glyph unicode="&#xf4;" glyph-name="ocircumflex" d="M300 -12Q231 -12 178 20T95 110T65 248Q65 328 95 386T178 476T300 508Q369 508 422 476T505 386T535 248Q535 169 505 111T422 20T300 -12ZM300 54Q346 54 382 75T441 139T463 248Q463 315 441 357T383
421T300 442Q255 442 218 421T159 358T137 248Q137 182 159 139T218 75T300 54ZM166 554V620L300 700L434 620V554L302 633H298L166 554Z" />
<glyph unicode="&#xf5;" glyph-name="otilde" d="M300 -12Q231 -12 178 20T95 110T65 248Q65 328 95 386T178 476T300 508Q369 508 422 476T505 386T535 248Q535 169 505 111T422 20T300 -12ZM300 54Q346 54 382 75T441 139T463 248Q463 315 441 357T383 421T300
442Q255 442 218 421T159 358T137 248Q137 182 159 139T218 75T300 54ZM359 582Q331 582 313 592T279 613T242 623Q226 623 215 614T200 584H151Q153 630 178 653T240 677Q268 677 286 667T320 647T357 636Q395 636 401 675H449Q449 631 423 607T359 582Z" />
<glyph unicode="&#xf6;" glyph-name="odieresis" d="M300 -12Q231 -12 178 20T95 110T65 248Q65 328 95 386T178 476T300 508Q369 508 422 476T505 386T535 248Q535 169 505 111T422 20T300 -12ZM300 54Q346 54 382 75T441 139T463 248Q463 315 441 357T383 421T300
442Q255 442 218 421T159 358T137 248Q137 182 159 139T218 75T300 54ZM390 565Q367 565 352 581T336 619Q336 641 351 657T390 673Q412 673 427 657T442 619Q442 597 427 581T390 565ZM212 565Q189 565 174 581T158 619Q158 641 173 657T212 673Q234 673 249 657T265
619Q265 597 250 581T212 565Z" />
<glyph unicode="&#xf7;" glyph-name="divide" d="M80 318V382H520V318H80ZM300 84Q273 84 254 103T234 150Q234 177 253 196T300 216Q327 216 346 197T366 150Q366 123 347 104T300 84ZM300 484Q273 484 254 503T234 550Q234 577 253 596T300 616Q327 616 346
597T366 550Q366 523 347 504T300 484Z" />
<glyph unicode="&#xf8;" glyph-name="oslash" d="M47 -20L120 71Q94 105 80 149T65 248Q65 328 95 386T178 476T300 508Q377 508 435 468L473 516H551L479 426Q506 392 520 347T535 248Q535 169 505 111T422 20T300 -12Q222 -12 165 29L126 -20H47ZM137 248Q137
211 144 181T165 128L393 415Q354 442 300 442Q255 442 218 421T159 358T137 248ZM300 54Q346 54 382 75T441 138T463 248Q463 286 456 316T435 369L207 82Q246 54 300 54Z" />
<glyph unicode="&#xf9;" glyph-name="ugrave" d="M271 -12Q180 -12 135 41T90 193V496H160V201Q160 132 191 93T286 54Q348 54 392 96T436 219V496H506V0H449L440 75H436Q416 40 373 14T271 -12ZM607 538L401 643V720L607 610V538Z" />
<glyph unicode="&#xfa;" glyph-name="uacute" d="M271 -12Q180 -12 135 41T90 193V496H160V201Q160 132 191 93T286 54Q348 54 392 96T436 219V496H506V0H449L440 75H436Q416 40 373 14T271 -12ZM245 538V610L451 720V643L245 538Z" />
<glyph unicode="&#xfb;" glyph-name="ucircumflex" d="M271 -12Q180 -12 135 41T90 193V496H160V201Q160 132 191 93T286 54Q348 54 392 96T436 219V496H506V0H449L440 75H436Q416 40 373 14T271 -12ZM420 554V620L554 700L688 620V554L556 633H552L420 554Z" />
<glyph unicode="&#xfc;" glyph-name="udieresis" d="M271 -12Q180 -12 135 41T90 193V496H160V201Q160 132 191 93T286 54Q348 54 392 96T436 219V496H506V0H449L440 75H436Q416 40 373 14T271 -12ZM644 565Q621 565 606 581T590 619Q590 641 605 657T644 673Q666
673 681 657T696 619Q696 597 681 581T644 565ZM466 565Q443 565 428 581T412 619Q412 641 427 657T466 673Q488 673 503 657T519 619Q519 597 504 581T466 565Z" />
<glyph unicode="&#xfd;" glyph-name="yacute" d="M152 -220L277 53H249L50 496H126L298 98L481 496H553L225 -220H152ZM247 538V610L453 720V643L247 538Z" />
<glyph unicode="&#xfe;" glyph-name="thorn" d="M83 -220V720H153V410Q172 452 215 480T316 508Q378 508 426 478T502 389T530 247Q530 164 502 106T425 18T311 -12Q252 -12 211 14T153 76V-220H83ZM306 54Q373 54 416 102T459 248Q459 346 416 394T306 442Q239
442 196 394T153 248Q153 150 196 102T306 54Z" />
<glyph unicode="&#xff;" glyph-name="ydieresis" d="M152 -220L277 53H249L50 496H126L298 98L481 496H553L225 -220H152ZM390 565Q367 565 352 581T336 619Q336 641 351 657T390 673Q412 673 427 657T442 619Q442 597 427 581T390 565ZM212 565Q189 565 174 581T158
619Q158 641 173 657T212 673Q234 673 249 657T265 619Q265 597 250 581T212 565Z" />
<glyph unicode="&#x2013;" glyph-name="endash" d="M100 320V380H500V320H100Z" />
<glyph unicode="&#x2014;" glyph-name="emdash" d="M0 320V380H600V320H0Z" />
<glyph unicode="&#x2018;" glyph-name="quoteleft" d="M214 430L308 700H371L301 430H214Z" />
<glyph unicode="&#x2019;" glyph-name="quoteright" d="M229 430L299 700H386L292 430H229Z" />
<glyph unicode="&#x201a;" glyph-name="quotesinglbase" d="M229 -128L299 142H386L292 -128H229Z" />
<glyph unicode="&#x201c;" glyph-name="quotedblleft" d="M360 430L454 700H517L447 430H360ZM314 430L408 700H471L401 430H314Z" />
<glyph unicode="&#x201d;" glyph-name="quotedblright" d="M385 430L455 700H542L448 430H385ZM339 430L409 700H496L402 430H339Z" />
<glyph unicode="&#x201e;" glyph-name="quotedblbase" d="M385 -128L455 142H542L448 -128H385ZM339 -128L409 142H496L402 -128H339Z" />
<glyph unicode="&#x2022;" glyph-name="bullet" d="M300 235Q252 235 219 268T185 350Q185 398 218 431T300 465Q348 465 381 432T415 350Q415 302 382 269T300 235Z" />
<glyph unicode="&#x2039;" glyph-name="guilsinglleft" d="M319 100L204 295L319 490H394L284 297V293L394 100H319Z" />
<glyph unicode="&#x203a;" glyph-name="guilsinglright" d="M206 100L316 293V297L206 490H281L396 295L281 100H206Z" />
</font>
</defs>
</svg>
